This file was generated by Ched 2.7.0.0.
#TITLE ""
#ARTIST ""
#DESIGNER ""
#DIFFICULTY 0
#PLAYLEVEL
#SONGID ""
#WAVE ""
#WAVEOFFSET 0
#JACKET ""
#REQUEST "ticks_per_beat 480"
#00002: 4
#BPM01: 146
#00008: 01
#TIL00: ""
#VOLUME: ""
#HISPEED 00
#MEASUREHS 00
#00018:14
#00512:14
#0121a:14
#01210:41
#0131a:14
#01412:14
#01512:14
#01618:14
#01718:14
#01814:14
#01914:14
#03612:0016
#03618:26
#03610:41
#04618:14
#04718:14
#04714:0014
#0651a:14
#06618:14
#06712:14
#06710:41
#06814:14
#06818:0014
#06912:14
#07014:14
#0711a:14
#07218:14
#07214:0014
#0741a:14
#07512:14
#0731a:14
#00118:14
#00214:14
#00314:14
#0061a:14
#00712:14
#00818:14
#00914:14
#01018:14
#01114:14
#05612:0016
#05618:26
#0561f:21
#05812:1616
#05918:1616
#06018:0016
#06012:16
#06218:16
#06212:0016
#03212:1616
#03512:0016
#03518:16
#03412:0016
#03318:16
#03718:16
#03812:0016
#03918:1616
#04018:0016
#04012:16
#02818:2616
#02810:41
#02912:16
#03118:0016
#03112:16
#03018:0016
#04212:0016
#04218:16
#04414:14
#04514:14
#0481f:11
#0041a:24
#06412:26
#05710:41
#02010:41
#0203a0:14
#0213a0:24
#022320:14
#023320:24
#024380:14
#025380:24
#026340:14
#027340:24
#029320:0016
#030320:26
#033380:0016
#034380:26
#037320:0016
#038320:26
#041320:1626
#043380:1626
#048380:14
#049380:24
#050340:14
#051340:24
#0523a0:14
#0533a0:24
#054320:14
#055320:24
#057380:1626
#061320:1626
#063380:1626
#076320:14000024
