This file was generated by Ched 2.7.0.0.
#TITLE ""
#ARTIST ""
#DESIGNER ""
#DIFFICULTY 0
#PLAYLEVEL
#SONGID ""
#WAVE ""
#WAVEOFFSET 0
#JACKET ""
#REQUEST "ticks_per_beat 480"
#00002: 4
#BPM01: 146
#00008: 01
#TIL00: ""
#VOLUME: ""
#HISPEED 00
#MEASUREHS 00
#02212:1313
#0221b:1300000000130000
#02215:00130013
#02218:0000001300000013
#06518:0014
#06512:00240024
#0651a:00240024
#06618:0014
#06614:14
#06612:00240024
#0661a:00240024
#01218:00130000
#01212:24
#01210:41
#01312:00000013
#02312:0013000000000000
#02318:0000130000000013
#0231b:0000000000130000
#02315:0000001300001300
#02415:00131300
#02418:0000001300130000
#02412:00000013
#0241b:0000000000000013
#02515:0000001300000013
#02518:0013
#02512:0000000000130000
#02712:13
#0271b:13
#04815:00130000
#04818:0000001300000000
#04812:00001313
#0481b:0000000000130013
#0481f:11
#0481a:24
#04915:00000013
#04918:0013000000000000
#0501b:13130000
#05012:1300000000130000
#05015:0000001300000013
#05018:00001313
#0561b:00130000
#05612:2400001300000014
#05618:00001313
#05615:0000000000130000
#0561a:24
#0561f:21
#05815:00131300
#05818:0000001300130000
#05812:24000013
#0581a:2400000000000014
#06018:00130013
#06012:0000001300000014
#0601b:0013
#06015:0000000000130000
#07312:13
#07315:0013
#07412:13
#07415:0013
#0751b:13
#07518:0013
#00019:12
#00115:12
#00218:13
#00418:0013001300130000
#00415:00130013
#00412:0013
#0041b:0000000000000013
#00515:0013001300130000
#00518:00130013
#0051b:0013
#00512:0000000000000013
#00618:0013001300130000
#00615:00130013
#00612:0013
#0061b:0000000000000013
#00812:0013001300000013
#0081b:00130013
#00818:0013
#00815:0000000000130000
#0091b:0013001300000013
#00912:00130013
#00915:0013
#00918:0000000000130000
#01012:0013001300000013
#0101b:00130013
#01018:0013
#01015:0000000000130000
#01615:00130000
#0171b:00000013
#04515:0013000000130000
#04518:00130013
#04512:0000001300000013
#0451b:0013
#04618:0013000000130000
#04615:00130013
#0461b:0000001300000013
#04612:0013
#0381a:14
#03812:14130000
#03817:0000001300000000
#03814:0013
#03819:0000000000130000
#03816:00000013
#0381b:0000000000000013
#0421a:14
#04212:1400000000130013
#04218:00130000
#04215:0000001300000000
#0421b:00001313
#0361b:00130000
#03612:0000001300000000
#03618:00001313
#03615:2300000000130013
#03610:41
#03712:0013000000000000
#03715:0000001300000000
#03912:0000000000130000
#03915:00000013
#03918:0013000000000013
#04315:0013000000133333
#04318:0000000000133333
#04313:00330000
#04012:00130000
#0401b:0000001300000000
#04015:00001313
#04018:0000000000130013
#0411b:0013000000000000
#04118:0000001300000000
#04119:00330000
#0341b:0000000000130013
#03412:14001313
#03418:0000001300000000
#03415:00130000
#0341a:14
#03315:0000001300000000
#03312:0013000000000000
#03215:0000000000130013
#03218:00001313
#03212:0000001300000000
#0321b:00130000
#02918:0000001300000000
#0291b:0013000000000000
#02818:2300000000130013
#02815:23001313
#0281b:0000001300000000
#02812:00130000
#02810:41
#0351b:0000001300000000
#03518:0013000000000000
#03012:1400000000000013
#03017:00000013
#03014:0000000000130000
#03019:0013
#03016:0000001300000000
#0301b:00130000
#0301a:14
#03115:0013000000000013
#03118:00000013
#0311b:0000000000130000
#05212:00130000
#05218:0000001300000013
#05215:00001313
#0521b:0000000000130000
#05312:13
#0531b:0013000000000000
#05315:0000001300130000
#05318:0013
#05716:0014000000000000
#0571a:0000001400000000
#05710:41
#05912:0014000000000013
#05918:0000001400001300
#05915:0000000000130000
#0611a:0014000000000000
#06114:00140000
#06215:00130013
#0621b:0000001300000000
#06212:0013
#06218:2400000000130000
#0621a:0000000000000014
#06312:0014001400000024
#06318:0000140000240000
#06314:00000024
#0631a:0000000000000024
#06714:14
#06718:0014
#06712:00240024
#0671a:00240024
#06710:41
#06814:14
#06812:00242400
#0681a:00242400
#06916:1414
#06912:00240024
#06918:00240024
#07016:1414
#07014:00240024
#0701a:00240024
#07116:1414
#07112:00240000
#07118:00240000
#07114:00000024
#0711a:00000024
#07216:1414
#07218:00240000
#07212:00240000
#0721a:00000024
#07214:00000024
#0141b:00130000
#01418:0000000000000013
#01412:0000001300000000
#01515:00000013
#02015:00131300
#02018:0000001300130000
#02012:00000013
#0201b:2300000000000013
#02010:41
#02112:13
#0211b:0013000000000000
#02115:00000013
#01812:00130000
#01815:0000000000000013
#0181b:0000001300000000
#01918:00000013
#05118:0000000000130000
#0511a:00000033
#01118:1300000000240000
#01115:0013000000000000
#0111b:00130000
#01112:0000001300000000
#0111a:0000000000000024
#01114:00000024
#04712:1300000000000024
#04718:0013000000002400
#0471b:0000001300000000
#04715:00130000
#04714:0000000000240000
#00315:23
#00312:00333300330033330000000000000000
#07612:24343400340034340000000000000000
#07616:00000000000000000034343434343400
#07614:00000000000000000000000000000068
#00712:0024000000002400
#00714:0000002400000000
#0071a:0000240000240000
#00718:0000000000000024
#05512:00343434
#0551a:00343434
#01352:00000053
#0245b:0000000000000063
#02552:0000000000530000
#02555:0000000000000063
#02752:53
#0275b:63
#06258:14
#0625a:0000000000000014
#06352:0000001400000054
#0635a:0000000000000054
#00452:13
#07352:53
#07355:0063
#07452:53
#07455:0063
#0755b:63
#07558:0063
#00059:52
#00155:62
#00258:53
#00355:63
#01252:14
#0175b:00000063
#02358:0000000000000013
#02355:0000001300000000
#02258:0000000000000013
#02858:1300000000000053
#02855:13
#0485a:14
#0485b:0000000000000063
#03752:0053000000000000
#03755:0000006300000000
#03958:0053000000000000
#0395b:0000001300000000
#0385b:0000000000000053
#04355:0063000000630000
#04358:0000000000530000
#03655:1300000000000063
#0415b:0063000000000000
#04158:0000005300000000
#04058:0000000000000053
#04252:0000000000000053
#0345b:0000000000000063
#03355:0000006300000000
#03352:0053000000000000
#03255:0000000000000063
#02958:0000005300000000
#0295b:0063000000000000
#0355b:0000006300000000
#03558:0053000000001300
#03052:0000000000000063
#03155:0063000000000000
#03152:0000001300000000
#04958:0053000000000000
#0515b:0000000000000013
#05158:0000000000530000
#05652:14
#0565a:14
#05355:0000000000630000
#0575a:0000006400000000
#0585a:0000000000000014
#05952:0014000000000000
#05958:0000001400000000
#06052:0000000000000014
#0655a:14
#06552:14
#07652:54
#01452:0000005300000000
#01555:00000063
#0215b:0063000000000000
#0185b:0000006300000000
#01958:00000053
#0205b:13
#05055:0000000000000063
#000390:12
#0013c0:22
#001351:12
#002321:22
#002380:13
#0033b0:23
#003351:13
#003321:00333300330033333333333333333333
#004321:23
#012351:0000001300000000
#012321:0000000000003333
#013351:0000333300000000
#013321:00000033
#014351:23
#014321:0000001300000000
#014351:00000023
#015351:1300000000333300
#015321:0000333300000000
#016321:23
#016381:0000001300000000
#0163b1:0000000000003333
#017381:0000333300000000
#0173b1:00000033
#018381:23
#0183b1:0000001300000000
#018381:00000023
#019381:1300000000333300
#0193b1:0000333300000000
#0203b1:23
#0213b1:0013000000000000
#021381:0023
#0243b1:0000000000000013
#025381:0023000000000000
#025321:0000000000130000
#025351:0000000000000033
#027321:33
#028351:23
#0273b0:13
#028380:23
#028380:0000000000000013
#0293b0:0033000000002300
#029380:0000003300000000
#030320:0000000000000013
#031350:0033000000000000
#031320:0000002300000000
#032350:0000000000000013
#033320:0033000000002300
#033350:0000003300000000
#0343b0:0000000000000013
#035380:0033000000002300
#0353b0:0000003300000000
#036350:0000000000000013
#037320:0033000000002300
#037350:0000003300000000
#0383b0:0000000000000013
#039380:0033000000000000
#0393b0:0000002300000000
#040380:0000000000000013
#0413b0:0033000000002300
#041390:00330000
#041380:0000003300000000
#042320:0000000000000013
#043350:0033000000000000
#043330:00330000
#043320:0000002300000000
#043380:0000000000133333
#0443b0:0000003300002300
#043351:0000000000133333
#044321:0000003300002300
#0483b1:0000000000000013
#049381:0033000000000000
#0493b1:0023
#050351:0000000000000013
#051321:00230000
#0513b1:0000001300000023
#051381:0000000000330000
#0513a1:00000033
#053351:0000000000130000
#053321:0000000000000033
#055351:33
#055321:00343434
#056321:24
#055380:13
#0553a0:00343434
#0563a0:24
#0573a0:0000001400000000
#057360:00000024
#0613a0:0000001400000000
#061380:0000000000003434
#062380:24
#063320:0000000000000014
#064350:0000003300000000
#064320:00000000000000000000000054545454
#064330:0000000000000000000000000000000000000000000000000054005400540054
#065320:24
#0633a1:0000000000000014
#064381:0000003300000000
#0643a1:00000000000000000000000054545454
#064391:0000000000000000000000000000000000000000000000000054005400540054
#0653a1:24
#068321:0014
#068341:00000024
#0683a0:0014
#068380:00000024
#073320:13
#073350:0033
#074320:33
#074350:0033
#075320:23
#0753b1:13
#075381:0033
#0763b1:23
#076320:14343400340034340000000000000000
#076360:00000000000000003434343434343400
#076340:00000000000000000000000000000028
