This file was generated by Ched 2.7.0.0.
#TITLE ""
#ARTIST ""
#DESIGNER ""
#DIFFICULTY 0
#PLAYLEVEL
#SONGID ""
#WAVE ""
#WAVEOFFSET 0
#JACKET ""
#REQUEST "ticks_per_beat 480"
#00002: 4
#BPM01: 146
#00008: 01
#TIL00: ""
#VOLUME: ""
#HISPEED 00
#MEASUREHS 00
#00018:16
#00212:16
#02812:2414
#02818:00140014
#02810:41
#04514:00140014
#0451a:1414
#00118:16
#0041a:2414
#00414:00140000
#00512:1414
#00518:00140000
#00812:1414
#00818:00140000
#02018:1414
#02014:00140014
#02010:41
#02212:1414
#0221a:00140014
#0301a:1414
#03014:00140014
#03214:1414
#0321a:00140014
#0381a:14
#03818:0014
#03814:00140000
#03812:00000014
#0471a:14
#04714:00140000
#04718:0014
#04712:00000014
#02914:14
#0291a:00140000
#03118:14
#03112:00140000
#03312:14
#03318:00140000
#03418:1414
#03412:00140014
#0351a:14
#03514:00140000
#03614:0014
#03618:00140000
#0361a:00000014
#03612:24
#03610:41
#03714:14
#03718:00140000
#03918:14
#03914:00140000
#04014:14
#04018:00000014
#04012:0014
#0401a:00140000
#04112:14
#0411a:00140000
#04218:14
#04214:00000014
#0421a:0014
#04212:00140000
#0431a:14
#04312:00140000
#05618:0014
#05612:00140000
#05614:00000014
#0561a:24
#0561f:21
#05812:14
#05814:0014
#0581a:00140000
#05818:00000014
#0601a:0014
#06014:00140000
#06012:00000014
#06018:14
#05712:00140000
#0571a:14
#05710:41
#0591a:00140000
#05912:14
#06114:00140000
#06118:14
#06212:0014
#06218:00140000
#0621a:00000014
#06214:14
#06318:00140000
#06314:14
#07314:14
#07312:00343400
#07418:14
#0741a:00343400
#07512:14
#07514:00343400
#05516:0014
#0481a:14
#0481f:11
#04819:00340000
#04818:0034
#05012:14
#05013:00340000
#05014:0034
#05218:14
#05219:00340000
#0521a:0034
#05414:14
#0061a:1414
#00614:00140000
#00714:1414
#00718:00140014
#0091a:1414
#00914:00140000
#01012:1414
#01018:00140000
#01118:1414
#01114:00140014
#02118:14
#02414:1414
#02418:00140014
#02514:14
#02618:14
#04612:00140014
#04618:1414
#04414:14
#01218:00140000
#01219:00000034
#01210:41
#0141a:00140000
#01419:00000034
#01614:00140000
#01613:00000034
#01812:00140000
#01813:00000034
#04918:14
#04919:00340000
#0491a:0034
#05114:14
#05113:00340000
#05112:0034
#0531a:14
#05319:00340000
#05318:0034
#00312:26
#0131a:00340000
#01518:00340000
#01712:00340000
#01914:00340000
#06710:41
#00352:16
#05552:14
#07354:64
#07458:54
#07552:54
#07658:0000000000000014
#06852:00000014
#07258:00000014
#0485a:64
#05052:54
#05258:54
#05454:64
#0275a:14
#02158:54
#02554:64
#02658:54
#04454:64
#01258:00540000
#0145a:00640000
#01654:00640000
#01852:00540000
#04958:54
#05154:64
#0535a:64
#012380:14340000
#012390:00000034
#0133a0:00340034
#0143a0:00340000
#014390:00000034
#015380:00340024
#016340:14340000
#016330:00000034
#017320:00340034
#018320:00340000
#018330:00000034
#019340:00340024
#021380:14
#0213a0:0024
#023320:14240000
#0233a0:00001424
#025340:14
#025320:0024
#026380:14
#0263a0:0054
#0273a0:24
#029340:00001424
#031380:00001424
#033320:00001424
#0353a0:00001424
#037320:00001424
#0393a0:00001424
#041340:00001424
#043380:00001424
#044340:14
#044320:00000024
#0483a0:14
#048390:00340000
#048380:00003434
#049380:34
#049390:00340000
#0493a0:00003424
#050320:14
#050330:00340000
#050340:00003434
#051340:34
#051330:00340000
#051320:00003424
#052380:14
#052390:00340000
#0523a0:00003434
#0533a0:34
#053390:00340000
#053380:00003424
#054340:14
#055320:24
#057380:0014
#0573a0:00000024
#059340:0014
#059320:00000024
#0613a0:0014
#061380:00000024
#063320:0014
#063340:00000024
#064380:16
#0643a0:00000024
#065320:14340000
#065340:00000034
#066320:00340000
#066340:00000034
#067320:00340000
#067340:00000034
#068320:00340024
#068340:0034
#0693a0:14340000
#069380:00000034
#0703a0:00340000
#070380:00000034
#0713a0:00340000
#071380:00000034
#0723a0:00340000
#072380:00000024
#073340:14
#073320:00343424
#074380:14
#0743a0:00343424
#075320:14
#075340:00343424
#0763a0:1434
#076380:0000340000003424
