This file was generated by Ched 2.7.0.0.
#TITLE ""
#ARTIST ""
#DESIGNER ""
#DIFFICULTY 0
#PLAYLEVEL
#SONGID ""
#WAVE ""
#WAVEOFFSET 0
#JACKET ""
#REQUEST "ticks_per_beat 480"
#00002: 4
#BPM01: 128
#00008: 01
#TIL00: "64'238:1, 64'237:10000"
#VOLUME: ""
#HISPEED 00
#MEASUREHS 00
#00212:00000000002400002400000013001300
#0021a:00241400
#00216:0000002400000000
#00415:0000130000000013
#00418:0000001300001300
#00412:1424
#0041a:2414
#0051b:1313
#00515:00131300
#00518:0000001300000023
#0051a:0000000000130000
#00519:00000013
#00514:0000000000130000
#00513:00000013
#00512:2400000000000023
#00615:0013130000000013
#00618:0000001300000000
#0061b:0000130000130000
#00610:0041
#0111b:00130000000000001300130000000000
#01112:00000013
#01115:1300000013000013
#01118:0000001300001300
#01414:00000000000052000000000000000012
#0141a:0052000012001400
#01416:00120012
#0141c:12
#01410:0041
#01415:00000000005200000000000000000000
#01413:00000000000000520000000000000000
#01412:0052
#0141b:00520000000000000000000000000000
#01419:00000052000000000000000000000000
#01418:00520000
#0151a:1212
#01518:00001200000000000000001200000000
#01516:00120000
#01514:0000001200120000
#01512:0000000000000012
#0161c:12
#01615:00120000
#01618:0000001200000000
#01616:00000000000000120000000000001200
#0161a:0000000000120000
#01914:12
#01916:0012000000000000
#01918:0000120000132300
#0191a:0000001200000000
#01912:00000000230000001300001300000000
#01915:0000000000000013
#0191b:0000000000000013
#02016:0000001200120000
#02015:13
#0201b:13000023
#02012:0013000000000000
#02018:0013000000000012
#0211a:1214
#02118:0012000000000000
#02116:00120000
#02114:0000001200000000
#02112:1312
#0211b:00230013
#02115:00000000000000000000003313000000
#02110:0041
#0251a:0000000000140000
#02518:00000000001300000000000014000000
#02516:0000000000000014
#02515:00130000
#02512:0024000000000000
#02912:00001214
#04012:1313
#0401a:00140000
#04017:0013
#0401b:00000013
#04018:0000000000000053
#04016:00000053
#0461b:000000000000000000000000130000000000000000000013
#04616:000000000000001300000000
#04619:0000000000130000
#04614:000000000000000000000000000000000013000000250000
#04617:00000025
#04612:2300002800000000
#04618:002300000000000000000000
#04615:0023000000000000
#0461a:00240000
#04610:0041
#05217:00131300
#0521b:130000000000000000003333
#05214:001300000000000000000000
#05219:0013000000000000
#05212:000000000013000000000000130000000000000000000000
#05216:0000001300000000
#05316:13
#05312:000000003333130000000000
#05317:000000003333130000000000
#0531b:13
#05310:0041
#05412:0014000024000000
#05416:0000140000240000
#0541a:0000001424000000
#00014:0000000000120000
#00016:00000012
#00018:0000000000000012
#0011a:12
#00114:00120000000000000000000000000000
#00118:00000012000000000000000000000000
#00117:00000000000000000000003232323232
#0031b:00130013
#00318:0000000000000013
#00315:0000000000130000
#00312:14000024
#00317:23
#0031a:0024
#00718:0013000000000014
#0071b:0000001300000000
#00712:0014
#00714:0000000000140000
#00716:00000014
#00812:14130054
#00815:0000000014000013
#00817:00140000
#0081a:1454
#00818:00000053
#0081b:0000000000000053
#0091b:0013530000000000
#00912:5300001300002424
#00916:00001414
#0091a:0000000024240000
#00915:0053000000000000
#00918:0000005300000000
#01218:1300000013000013
#01212:00130000000000001300130000000000
#01215:0000001300001300
#0121b:00000013
#01315:13
#0131b:00130000000000000000000000000000
#01318:0000001300000000
#01316:0000000000240024
#0171b:12
#01719:0012000000121200
#01714:00120000
#01717:00000000001200000000000000000000
#01712:00000000000000120000000000000000
#01715:00000012
#01812:12000023
#0181b:00000013
#01818:0000220000000013
#01816:00220000
#02218:26000000001300000000130000001300
#02212:26130000
#02215:00000000000000130000000013000013
#0221a:00000000000000240000000000000000
#0231b:0000130000130000
#02315:00000000001300000000000000000000
#02318:0000001300000013
#02312:00001400000000130000000013000000
#0231a:24
#02415:00000000130000000000000000130000
#02418:00001400001300000000000013000000
#02412:24
#0241a:0000000000240000
#02612:14000000000000130000000000000000
#0261b:00130000
#02615:00000000001300000000000000000000
#02618:0000001300000000
#0261a:2400000000142400
#0271b:13
#02712:0014240000000000
#02715:0013
#02815:23130000
#02818:00000000001300000000000000000000
#02812:00000000000000130000000000000000
#0281b:23000000000000130000000000000000
#03012:16000000000000000000000000000024
#0301f:00110000
#0301a:00000000000000240000000000000000
#03118:0000000000000013
#03112:00000013
#0311a:00000000000000240000000024000000
#03215:00001300000000130000000000000000
#0321b:13
#03218:0000001300001300
#03212:24130000
#03216:0000000000240024
#0321a:00240000
#03312:1400002400131415
#0331a:0024140000000000
#03316:00000000000000260000000000000000
#0331b:0000000000003333
#03412:16
#03417:0012
#03716:13
#0371b:13000013
#03714:0013000000000000
#03712:0000130000130000
#03717:00130000
#03719:0000001300000000
#03715:0013
#03718:0000000000000013
#03710:0041
#0381b:13
#03816:0014001400000000
#03818:0000000000130000
#03812:2400000000000013
#03815:00000013
#0381a:00240000
#03918:0013000000000000
#03915:0000001300000000
#0391b:13
#04112:1300530023230000
#0411b:5300130053002323
#04115:0053000000001300
#04118:0000005300000000
#04215:00000000230000130000000000000000
#0421a:00000014
#04216:0000000000000014
#04218:00000000002300130000000000000000
#04212:23
#0421b:0023000000000000
#0431a:001400000000000000000000
#04315:000000000013000000000000130000000000000000000000
#0431b:000000000013000000000000000000000000130000130000
#04312:0000001300000000
#04318:0000001300130000
#04316:005400000000000000000000
#0441b:2300000000531300
#04416:0000002400001300
#04415:002300000000000000000000
#04418:0023000000000000
#04412:2300240000530000
#04518:000000000013000000000000000000000000000013000000
#04512:000014000013000000000013000000130000000000130000
#0451b:000000000000000000130000000000000013000000000013
#04515:000000001300000000130000
#04516:005400000000000000000000
#04716:130000000000000000000000000000000000001300000000
#04719:001300000000130000001300
#04714:000000130000000000000000001300000000000000130000
#04717:000000000013000000000000000013000000000000000000
#0471b:0000001300001300
#04712:0000130000130000
#0481a:14
#04814:001400000000000000000000
#04818:0014000000000000
#04812:000000000014000000250000000000230000000000000000
#04816:00250000
#0481b:0023
#04912:000013000000000000000000000000000013000000000000
#04917:0013000000000000
#04914:000000000013000000000000530000000000000000000000
#04919:0000130000530000
#04916:001300
#0491b:000000000000000000130000000000000000000013000000
#04915:000000000000000000000013000000000000000000000000
#04918:000000000000001300000000
#04913:000000000000000000000000000000000000530000000013
#0491a:0000000000000053
#05112:000000000014000000000000130000000000000013000000
#0511b:1300001300000000
#05116:000000000000000000130000000000000000000000000013
#0511a:000000000000000000000000000000000014000000000000
#05119:0000000000000013
#05615:0000000000130000
#05618:0000000000130000
#05612:2423
#0561a:2424000000000000
#0561b:0023
#05914:0013000000000024
#05919:0000001300000000
#05912:13130000
#0591b:13
#05916:0000001300002400
#05917:0013000000000000
#0591a:0024
#05918:0000000000240000
#06012:24140013
#06016:0013
#06018:0000000000000013
#0601b:2313
#06014:0000000000000053
#06017:00000053
#05712:13001313
#05715:0013000000130013
#05718:00130000
#0571b:0000001300000000
#05815:00130000
#05818:00001300001300000000000000000000
#0581a:00000000000000140000000000000000
#05812:00000000000000240000000013000000
#05816:0000000000000000000000000000000000000014000000000000000000000000
#05819:0000000000000013
#05814:0000000000000013
#06118:1300001300000000
#06114:1300005300002323
#06116:0013130023230000
#0611a:0053130000000000
#06119:0000000000002323
#0611b:0000000023230000
#05014:000000000013000000250000000000000000000000000000
#05012:53002413
#0501a:001300000000240000240000
#05019:001300
#05017:00250000
#05015:000000000033
#05016:000000000000000000000000000000000000000000000033
#0501b:0053000000000000
#0101a:00000000000000140054540054000000
#01016:2424000000000000
#01014:00240000
#01018:00000000002400000000000000000000
#01012:00000000000000240064640064000000
#03618:0000000000120000
#03616:2400000000120000
#03619:0025
#03614:00280000
#03612:0025
#0361f:00000021
#0551a:2424
#05512:2400000024240000
#05516:0024000000000000
#06218:00230000
#06215:00000000002300000000000000000000
#06212:23000000000000240000000000000000
#0621a:00002300000000240000000000000000
#06217:23
#03512:002c
#03514:00000028
#06318:52
#06316:52
#0055b:53
#00552:1400000000000013
#00558:0000000000000013
#0165c:62
#01656:00000000000000620000000000000000
#02152:0052
#0215b:00000023
#02155:00000023
#03458:16
#03452:16
#03457:0062
#03659:00005545
#03656:1400000000220000
#03654:00180000
#03652:00006535
#03658:0000000000220000
#04052:63
#04056:00140000
#0405a:00140000
#05257:00535300
#05356:53
#0535b:53
#05352:0023
#05357:0023
#00252:1c14
#0025a:0054
#00452:14
#0045a:14
#01052:00000014
#0105a:00000014
#0145a:00000014
#01558:00000000000000000000005200000000
#01752:00000000000000520000000000000000
#01759:00000052
#01852:00000000000000130000000000000000
#0185b:00000000000000130000000053000000
#01856:00520000
#01858:0000520000000023
#01952:0053
#02055:53
#0205b:53
#02058:0023000000000000
#02052:0023000000000000
#02258:1600000000630000
#02255:00000000000000530000000053000000
#02252:16
#0225a:00000000000000140000000000000000
#0235a:14
#02352:00000000000000530000000063000000
#0235b:0000000000530000
#02358:0000000000000053
#0245b:13
#02452:1400000000180000
#0245a:0000000000140000
#02556:0018000000000000
#02552:0014000000000000
#02652:00000000000000530000000000000000
#02656:00000014
#0265a:14000014
#0275b:63
#02756:00140000
#02752:00140000
#03052:00000000000000180000000000000014
#03056:00000000000000000000000000000018
#0305a:00000000000000140000000000000000
#03255:00000000000000530000000000000000
#03258:00000063
#03352:64
#0335a:00540000
#03856:0024002400000000
#03852:54340000
#0385a:00544400
#04252:53000014
#04255:00000000000000530000000000000000
#04458:0053000000000000
#04456:0000001400006300
#04655:0063000000000000
#04652:0000001800000000
#04657:00000045
#04654:0000000000000035
#04856:00450000
#04852:0000003500530000
#0485b:0053
#04858:00000044
#04854:000000000034
#04752:0000530000130000
#04754:0000000000000013
#05057:00450000
#05054:0000003500000000
#05052:00005453
#0505a:00005414
#05152:000000000014000000000000630000000000000000000000
#05156:000000000014000000000000000000000014000000000000
#0515b:53
#0515a:000000000000000000000000000000000014000000000000
#0545a:0000000000140000
#05456:0000000000140000
#05556:0014000000140000
#0555a:0054
#05552:0014000000140000
#05655:0000000000230000
#05658:0000000000230000
#05652:64005334
#0565a:0014000000004400
#05656:0014000000000000
#0565b:0053
#06052:14140053
#06056:00140000
#0605b:5353
#0585a:00000000000000540000000000000000
#05852:00000000000000340000000000000000
#05856:0000000000000000000000000000000000000024000000000000000000000000
#03152:00000000000000180000000000000000
#0315a:00000000000000140000000000000000
#0085a:14
#00852:14
#00352:64
#00357:43
#03552:001c
#03554:00000018
#05956:0000002300001400
#05957:0023000000000000
#05952:00530000
#0595b:53
#0595a:0014
#05958:0000000000140000
#05954:0000000000000014
#01356:0000000000140014
#0135a:0000000000140000
#01352:0000000000000014
#06158:53
#06156:00530000
#06252:53000000000000540000000000000000
#0625a:00000000000000640000000000000000
#02855:13
#0285b:13
#001320:0000001323000000
#0013b1:0000000013230000
#001370:00000000000000000000123232323232
#002320:2c
#0023a0:0014
#002370:00000033
#003370:23
#003321:14
#003361:00332300
#0053b1:13
#005381:00230000
#006321:0013
#006351:0000000000332300
#006380:00000013
#0063b0:0000000000000033
#0073b0:23
#007321:1323000000000000
#007351:0000132300000000
#011321:00000013000023000000000000000000
#0123b1:00000013000023000000000000000000
#013321:00000013000023000000000000000000
#0133a1:0000000014240000
#013321:0000000000001424
#015381:00000000000000000000001200000000
#0153a1:0000000000000022
#0163c1:12
#016391:00220000
#016361:00000000000000120000000000000000
#016331:0000000000220000
#017321:00000000000000120000000000000000
#017351:0000000000220000
#017391:00000012
#0183c1:22
#018361:00120000
#018321:00000000000000230000000000000000
#018380:00120000
#0183b0:00000000000000230000000000000000
#0183b0:00000013
#018380:0000000000000053
#0193b0:23
#019320:0013
#019350:0000000000230000
#020350:13230000
#020320:0053000000000000
#0203b1:13230000
#020381:0053000000000000
#020381:0013
#0203b1:0000000000230000
#020351:00000013
#020321:0000000000000023
#021321:0012
#021351:00000000000000000000003333000000
#022321:26
#0213b0:00000013
#022380:26
#022350:00000000000000130000000000000000
#022320:0000000000230000
#022381:0000000000130000
#0223b1:00000023
#022350:00000013
#022320:0000000000000023
#023320:00000000000000130000000000000000
#023350:0000000000230000
#0233b1:0000000000130000
#023381:00000023
#023320:00000013
#023350:0000000000000023
#023381:0000000000000013
#0243b1:23
#024321:00000000000000130000280000000000
#0243b1:00000000000000000000000000000013
#025361:0028000000000000
#025321:00000000000000130000280000000000
#026321:00000000000000130000000000000000
#026361:0000000000342400
#0273b1:13
#027361:0034240000000000
#0273b1:0000000013230000
#027320:0000000000132300
#027381:0000000000001323
#027350:0000000000000013
#028350:23
#030320:00000000180000280000000000000000
#030360:00000000000000000000000018000028
#031320:00000000180000280000000000000000
#032350:00000000000000130000000000000000
#032320:0000000000240000
#032380:00000013
#0323a0:0000000000000024
#033320:14
#033340:0026000000000000
#0333a0:00140000
#033360:0000002600000000
#033360:00000000000000160000000000000000
#0333b0:0000000000333333
#034380:26
#034370:0012
#035320:002c
#036390:00001525
#036380:0000000000520000
#036321:00001525
#036361:0000000000520000
#0373b1:0013
#037381:0000000000230000
#037351:00000013
#037321:0000000000000023
#038321:14240000
#038361:0054000000000000
#0383a0:00142400
#038360:0000005400000000
#038321:0000000013230000
#0383b1:0000000000001323
#039321:13
#039351:0033230000000000
#0393b0:00130000
#039380:0000003323000000
#039321:0000000013230000
#039380:0000000000132300
#039351:0000000000001323
#0393b0:0000000000000013
#0403b0:23
#040321:13
#040361:00240000
#042321:13
#042351:0023000000000000
#042351:00000000000000130000000000000000
#042321:000000000000000000000000000000000000000000000000000000535453545354535453240000000000000000000000
#043321:14
#043361:002400000000000000000000
#043321:0000000000001323
#044381:0013000000000000
#0443a1:00240000
#044321:0000000000000000000000000000000013535353230000000000000000000000
#044331:00000000000000000000000000000000000000000000000000000000000000000053005300530053000000000000000000000000000000000000000000000000
#0443b0:0000000000000000000000000000000013535353230000000000000000000000
#0443a0:00000000000000000000000000000000000000000000000000000000000000000053005300530053000000000000000000000000000000000000000000000000
#044360:00000013
#044320:000000000000000000000000000000000000000000333333
#045320:23
#0453a1:14
#045361:002400000000000000000000
#045381:0000000013230000
#046351:0013000000000000
#046321:00240000
#047321:00130000
#047361:0000002300000000
#0483b1:0013
#048381:00000024
#048320:0000000000130000
#048340:000000000000000000342400
#0483a0:000000000000000000000000000000000000000000000014
#0493a0:002400000000000000000000
#050320:0014
#050350:0000000000230000
#0503a1:0014
#050381:0000000000230000
#050321:00000013
#050351:000000000033
#050361:000000000000000000000000000000000000000000000033
#051361:23
#0513b0:13
#051360:000000000024000000000000000000000000000000000000
#051320:0013
#051360:000000000000000000000000000000000024000000000000
#052370:00130000
#0523b0:0000002300000000
#052370:0013
#0523b0:000000000000000000003333
#0533b0:33
#053370:000000003333330000000000
#054380:26
#053361:13
#053321:000000003333330000000000
#054321:26
#0543a1:0000000014240000
#055321:1424000000000000
#0553a1:0014
#055361:0000000000240000
#056321:14
#056361:0024000000000000
#056321:00001324
#056351:0000000000530000
#0563b0:0013
#056380:0000000000530000
#0563a0:00000024
#057380:13
#0573b0:0023000000000000
#057320:00130000
#057350:0000002300000000
#0573b0:00001333
#057380:0000000000330033
#0583b0:23
#058321:1323000000000000
#0583a1:00000000000000140000000024000000
#058361:0000000000000000000000000000000000000054000000000000000000000000
#0593b1:13230000
#059371:0033000000000000
#059320:00132300
#059360:0000003300000000
#0603b0:13
#060360:00240000
#062320:13
#062350:0023000000000000
#062320:00000000000000140000000000000000
#063360:22
#0623a1:00000000000000140000000000000000
#063381:22
#008970:00140000
#0089a0:0024
#008951:0014
#008921:00000024
#008980:00000013
#0089b0:0000000000000023
#009920:13
#009950:0023000000000000
#0099b0:00130000
#009980:0000002300000000
#010920:00000000000000140000000024000000
#0109a1:00000000000000140000000024000000
#0149c1:12
#014981:00220000
#014960:00120000
#014920:0022
#040920:0013
#040960:000000000000000000000000000000000000000000000000000000000000000000000000000000000000000000000000000000000000000000000000000000000000000000000000000000000000000000000000000000000000000000000000000000000000000000000000000000000000000000000000000000000000000000000000000000000000000000000000000000000000000000000000000000000000000000000000000000000000000000000000000000000000000000000000000000000000000000000000000000000000000000000000000000000000000000000000000000000000000000000000000000000000000000000000000000000000000000000000000000000000000000000000000000000000000000000000000000000000000000000000000000000000000000000000000000000000000000000000000000000000000000000000000000000000000000000000000000000000000000000000000000000000000000000000000000000000000000000000000000000000000000000000000000000000000000000000000000000000000000000000000000000000000000000000000000000000000000000000000000000000000000000000000000000000000000000000000000000000000000000000000000000000000000000000000000000000000000000000000000000000000000000000000000000000000000000000000000000000000000000000000000000000000000000000000000000000000000000000000000000000000000000000000000000000000000000000000000000000000000000000000000000000000000000000000000000000000000000000000000000000000000000000000000000000000000000000000000000000000000000000000000000000000000000000000000000000000000000000000000000000000000000000000000000000000000000000000000000000000000005353230000000000000000000000000000000000000000000000000000000000000000000000000000000000000000000000000000000000000000000000000000000000000000000000000000000000000000000000000000000000000000000000000000000000000000000000000000000000000000000000000000000000000000000000000000000000000000000000000000000000000000000000000000000000000000000000000000000000000000000000000000000000000000000000000000000000000000000000000000000000000000000000000000000000000000000000000000000000000000000000
#0409b1:000000000000000000000000000000000000000000000000000000000000000000000000000000000000000000000000000000000000000000000000000000000000000000000000000000000000000000000000000000000000000000000000000000000000000000000000000000000000000000000000000000000000000000000000000000000000000000000000000000000000000000000000000000000000000000000000000000000000000000000000000000000000000000000000000000000000000000000000000000000000000000000000000000000000000000000000000000000000000000000000000000000000000000000000000000000000000000000000000000000000000000000000000000000000000000000000000000000000000000000000000000000000000000000000000000000000000000000000000000000000000000000000000000000000000000000000000000000000000000000000000000000000000000000000000000000000000000000000000000000000000000000000000000000000000000000000000000000000000000000000000000000000000000000000000000000000000000000000000000000000000000000000000000000000000000000000000000000000000000000000000000000000000000000000000000000000000000000000000000000000000000000000000000000000000000000000000000000000000000000000000000000000000000000000000000000000000000000000000000000000000000000000000000000000000000000000000000000000000000000000000000000000000000000000000000000000000000000000000000000000000000000000000000000000000000000000000000000000000000000000000000000000000000000000000000000000000000000000000000000000000000000000000000000000000000000000000000000000000000000000130000000000000000000000000000000000000000000000000000000000000000000000000000000000000000000000000000000000000000000000000000000000000000000000000000000000000000000000000000000000000000000000000000000000000000000000000000000000000000000000000000000000000000000000000000000000000000000000000000000000000000000000000000000000000000000000000000000000000000000000000000000000000000000000000000000000000000000000000000000000000000000000000000000000000000000000000000000000000000005353
#040981:0000000000000053
#0419b1:23
#041920:130000000000000000000000000000000000000000000000000000000000000000000000000000000000000000000000000000000000000000000000000000000000000000000000000000000000000000000000000000000000000000000000000000000000000000000000000000000000000000000000000000000000000000000000000000000000000000000000000000000000000000000000000000000000000000000000000000000000000000000000000000000000000000000000000000000000000000000000000000000000000000000000000000000000000000000000000000000000000000005353230000000000000000000000000000000000000000000000000000000000000000000000000000000000000000000000000000000000000000000000000000000000000000000000000000000000000000000000000000000000000000000000000000000000000000000000000000000000000000000000000000000000000000000000000000000000000000000000000000000000000000000000000000000000000000000000000000000000000000000000000000000000000000000000000000000000000000000000000000000000000000000000000000000000000000000000000000000000000000000000000000000000000000000000000000000000000000000000000000000000000000000000000000000000000000000000000000000000000000000000000000000000000000000000000000000000000000000000000000000000000000000000000000000000000000000000000000000000000000000000000000000000000000000000000000000000000000000000000000000000000000000000000000000000000000000000000000000000000000000000000000000000000000000000000000000000000000000000000000000000000000000000000000000000000000000000000000000000000000000000000000000000000000000000000000000000000000000000000000000000000000000000000000000000000000000000000000000000000000000000000000000000000000000000000000000000000000000000000000000000000000000000000000000000000000000000000000000000000000000000000000000000000000000000000000000000000000000000000000000000000000000000000000000000000000000000000000000000000000000000000000000000000000000000000000000000000000000000000000000000000000000000000000000000000000000000000000000000000000000000
#041950:0053000000000000
#0419b1:000000000000000000000000000000000000000000000000000000000000000000000000000000000000000000000000000000000000000000000000000000000000000000000000000000000000000000000000000000000000000000000000000000000000000000000000000000000000000000000000000000000000000000000000000000000000000000000000000000000000000000000000000000000000000000000000000000000000000000000000000000000000000000000000000000000000000000000000000000000000000000000000000000000000000000000000000000000000000000000000130000000000000000000000000000000000000000000000000000000000000000000000000000000000000000000000000000000000000000000000000000000000000000000000000000000000000000000000000000000000000000000000000000000000000000000000000000000000000000000000000000000000000000000000000000000000000000000000000000000000000000000000000000000000000000000000000000000000000000000000000000000000000000000000000000000000000000000000000000000000000000000000000000000000000000000000000000000000000000005353230000000000000000000000000000000000000000000000000000000000000000000000000000000000000000000000000000000000000000000000000000000000000000000000000000000000000000000000000000000000000000000000000000000000000000000000000000000000000000000000000000000000000000000000000000000000000000000000000000000000000000000000000000000000000000000000000000000000000000000000000000000000000000000000000000000000000000000000000000000000000000000000000000000000000000000000000000000000000000000000000000000000000000000000000000000000000000000000000000000000000000000000000000000000000000000000000000000000000000000000000000000000000000000000000000000000000000000000000000000000000000000000000000000000000000000000000000000000000000000000000000000000000000000000000000000000000000000000000000000000000000000000000000000000000000000000000000000000000000000000000000000000000000000000000000000000000000000000000000000000000000000000000000000000000000000000000000000000000000000000
#041981:0000005300000000
#049951:000000000000000000000013000000000000000000000000
#049941:0023
#049981:000000000000001300000000
#049991:0000000000230000
#049921:000000000000000000000000000000000013000000000000
#049931:00000023
#0499b1:000000000013
#0499a1:0000000000000023
#049931:000000000000000000000000000000000000000000000013
#050921:23
#0509a1:001300000000000000000000
#0509b1:0023000000000000
#0609b1:0013
#060971:000000000000000000000000000000000000000000000000000000000000000000000000000000000000000000000000000000000000000000000000000000000000000000000000000000000000000000000000000000000000000000000000000000000000000000000000000000000000000000000000000000000000000000000000000000000000000000000000000000000000000000000000000000000000000000000000000000000000000000000000000000000000000000000000000000000000000000000000000000000000000000000000000000000000000000000000000000000000000000000000000000000000000000000000000000000000000000000000000000000000000000000000000000000000000000000000000000000000000000000000000000000000000000000000000000000000000000000000000000000000000000000000000000000000000000000000000000000000000000000000000000000000000000000000000000000000000000000000000000000000000000000000000000000000000000000000000000000000000000000000000000000000000000000000000000000000000000000000000000000000000000000000000000000000000000000000000000000000000000000000000000000000000000000000000000000000000000000000000000000000000000000000000000000000000000000000000000000000000000000000000000000000000000000000000000000000000000000000000000000000000000000000000000000000000000000000000000000000000000000000000000000000000000000000000000000000000000000000000000000000000000000000000000000000000000000000000000000000000000000000000000000000000000000000000000000000000000000000000000000000000000000000000000000000000000000000000000000000000000000000000000000000000000000000000000000000000000000000000000000000000000000000000000000000000000000000000000000000000000000000000000000000000000000000000000000000000000000000000000000000000000000000000000000000000000000000000000000000000000000000000000000000000000000000000000000000000000000000000000000000000000000000000000000000000000000000000000000000000000000000000000000000000000000000000000000000000000000000000000000000000000000000000000000000000000000000000000000000000000000000000000000000000000000000000000000000000000000000000000000000000000000000000000000000000000000000000000000000000000000000000000000000000000000000000000000000000000000000000000000000000000000000000000000000000000000000000000000000000000000000000000000000000000000000000000000000000000000000000000000000000000000000000000000000000000000000000000000000000000000000000000000000000000000000000000000000000000000000000000000000000000000000000000000000000000000000000000000000000000000000000000000000000000000000000000000000000000000000000000000000000000000000000000000000000000000000000000000000000000000000000000000000000000000000000000000000000000000000000000000000000000000000000000000000000000000000000000000000000000000000000000000000000000000000000000000000000000000000000000000000000000000000000000000000000000000000000000000000000000000000000000000000000000000000000000000000000000000000000000000000000000000000000000000000000000000000000000000000000000005353230000000000000000000000000000000000000000000000000000000000000000000000000000000000000000000000000000000000000000000000000000000000000000000000000000000000000000000000000000000000000000000000000000000000000000000000000000000000000000000000000000000000000000000000000000000000000000000000000000000000000000000000000000000000000000000000000000000000000000000000000000000000000000000000000000000000000000000000000000000000000000000000000000000000000000000000000000000000000000000000000000000000000000000000000000000000000000000000000000000000000000000000000000000000000000000000000000000000000000000000000000000000000000000000000000000000000000000000000000000000000000000000000000000000000000000000000000000000000000000000000000000000000000000000000000000000000000000000000000000000000000000000000000000000000000000000000000000000000000000000000000000000000000000000000000000000000000000000000000000000000000000000000000000000000000000000000000000000000000000000
#060920:00000013
#060940:000000000000000000000000000000000000000000000000000000000000000000000000000000000000000000000000000000000000000000000000000000000000000000000000000000000000000000000000000000000000000000000000000000000000000000000000000000000000000000000000000000000000000000000000000000000000000000000000000000000000000000000000000000000000000000000000000000000000000000000000000000000000000000000000000000000000000000000000000000000000000000000000000000000000000000000000000000000000000000000000000000000000000000000000000000000000000000000000000000000000000000000000000000000000000000000000000000000000000000000000000000000000000000000000000000000000000000000000000000000000000000000000000000000000000000000000000000000000000000000000000000000000000000000000000000000000000000000000000000000000000000000000000000000000000000000000000000000000000000000000000000000000000000000000000000000000000000000000000000000000000000000000000000000000000000000000000000000000000000000000000000000000000000000000000000000000000000000000000000000000000000000000000000000000000000000000000000000000000000000000000000000000000000000000000000000000000000000000000000000000000000000000000000000000000000000000000000000000000000000000000000000000000000000000000000000000000000000000000000000000000000000000000000000000000000000000000000000000000000000000000000000000000000000000000000000000000000000000000000000000000000000000000000000000000000000000000000000000000000000000000000000000000000000000000000000000000000000000000000000000000000000000000000000000000000000000000000000000000000000000000000000000000000000000000000000000000000000000000000000000000000000000000000000000000000000000000000000000000000000000000000000000000000000000000000000000000000000000000000000000000000000000000000000000000000000000000000000000000000000000000000000000000000000000000000000000000000000000000000000000000000000000000000000000000000000000000000000000000000000000000000000000000000000000000000000000000000000000000000000000000000000000000000000000000000000000000000000000000000000000000000000000000000000000000000000000000000000000000000000000000000000000000000000000000000000000000000000000000000000000000000000000000000000000000000000000000000000000000000000000000000000000000000000000000000000000000000000000000000000000000000000000000000000000000000000000000000000000000000000000000000000000000000000000000000000000000000000000000000000000000000000000000000000000000000000000000000000000000000000000000000000000000000000000000000000000000000000000000000000000000000000000000000000000000000000000000000000000000000000000000000000000000000000000000000000000000000000000000000000000000000000000000000000000000000000000000000000000000000000000000000000000000000000000000000000000000000000000000000000000000000000000000000000000000000000000000000000000000000000000000000000000000000000000000000000000000000000000000000000000000000000000000000000000000000000000000000000000000000000000000000000000000000000000000000000000000000000000000000000000000000000000000000000000000000000000000000000000000000000000000000000000000000000000000000000000000000000000000000000000000000000000000000000000000000000000000000000000000000000000000000000000000000000000000000000000000000000000000000000000000000000000000000000000000000000000000000000000000000000000000000000000000000000000000000000000000000000000000000005353230000000000000000000000000000000000000000000000000000000000000000000000000000000000000000000000000000000000000000000000000000000000000000000000000000000000000000000000000000000000000000000000000000000000000000000000000000000000000000000000000000000000000000000000000000000000000000000000000000000000000000000000000000000000000000000000000000000000000000000000000000000000000000000000000000000000000000000000000000000000000000000000000000000000000000000000000000000000000000000000
#061980:13
#0619a0:000000000000000000000000000000000000000000000000000000000000000000000000000000000000000000000000000000000000000000000000000000000000000000000000000000000000000000000000000000000000000000000000000000000000000000000000000000000000000000005353230000000000000000000000000000000000000000000000000000000000000000000000000000000000000000000000000000000000000000000000000000000000000000000000000000000000000000000000000000000000000000000000000000000000000000000000000000000000000000000000000000000000000000000000000000000000000000000000000000000000000000000000000000000000000000000000000000000000000000000000000000000000000000000000000000000000000000000000000000000000000000000000000000000000000000000000000000000000000000000000000000000000000000000000000000000000000000000000000000000000000000000000000000000000000000000000000000000000000000000000000000000000000000000000000000000000000000000000000000000000000000000000000000000000000000000000000000000000000000000000000000000000000000000000000000000000000000000000000000000000000000000000000000000000000000000000000000000000000000000000000000000000000000000000000000000000000000000000000000000000000000000000000000000000000000000000000000000000000000000000000000000000000000000000000000000000000000000000000000000000000000000000000000000000000000000000000000000000000000000000000000000000000000000000000000000000000000000000000000000000000000000000000000000000000000000000000000000000000000000000000000000000000000000000000000000000000000000000000000000000000000000000000000000000000000000000000000000000000000000000000000000000000000000000000000000000000000000000000000000000000000000000000000000000000000000000000000000000000000000000000000000000000000000000000000000000000000000000000000000000000000000000000000000000000000000000000000000000000000000000000000000000000000000000000000000000000000000000000000000000000000000000000000000000000000000000000000000000000000000000
#061960:00130000
#061940:000000000000000000000000000000000000000000000000000000000000000000000000000000000000000000000000000000000000000000000000000000000000000000000000000000000000000000000000000000000000000000000000000000000000000000000000000000000000000000000000000000000000000000000000000000000000000000000000000000000000000000000000000000000000000000000000000000000000000000000000000000000000000000000000000000000000000000000000000000000000000000000000000000000000000000000000000000000000000000000000000000000000000000000000000000000000000000000000000000000000000000000000000000000000000000000000000000000000000000000000000000000000000000000000000000000000000000000000000000000000000000000000000000000000000000000000000000000000000000005353230000000000000000000000000000000000000000000000000000000000000000000000000000000000000000000000000000000000000000000000000000000000000000000000000000000000000000000000000000000000000000000000000000000000000000000000000000000000000000000000000000000000000000000000000000000000000000000000000000000000000000000000000000000000000000000000000000000000000000000000000000000000000000000000000000000000000000000000000000000000000000000000000000000000000000000000000000000000000000000000000000000000000000000000000000000000000000000000000000000000000000000000000000000000000000000000000000000000000000000000000000000000000000000000000000000000000000000000000000000000000000000000000000000000000000000000000000000000000000000000000000000000000000000000000000000000000000000000000000000000000000000000000000000000000000000000000000000000000000000000000000000000000000000000000000000000000000000000000000000000000000000000000000000000000000000000000000000000000000000000000000000000000000000000000000000000000000000000000000000000000000000000000000000000000000000000000000000000000000000000000000000000000000000000000000000000000000000000000000000000000000000000000000000000000000000000000000000000000000000000
#0649d0:000000000000000000000000000000000000000000000000000000000000000000000000000000000000000000000000000000000000000000000000000000000000000000000000000000000000000000000000000000000000000000000000000000000000000000000000000000000000000000000000000000000000000000000000000000000000000000000000000000000000000000000000000000000000000000000000000000000000000000000000000000000000000000000000000000000000000000000000000000000000000000000000000000000000000000000000000000000000000000001121000000000000000000000000000000000000000000000000000000000000000000000000000000000000000000000000000000000000000000000000000000000000000000000000000000000000000000000000000000000000000000000000000000000000000000000000000000000000000000000000000000000000000000000000000000000000000000000000000000000000000000000000000000000000000000000000000000000000000000000000000000000000000000000000000000000000000000000000000000000000000000000000000000000000000000000000000000000000000000000000000000000000000000000000000000000000000000000000000000000000000000000000000000000000000000000000000000000000000000000000000000000000000000000000000000000000000000000000000000000000000000000000000000000000000000000000000000000000000000000000000000000000000000000000000000000000000000000000000000000000000000000000000000000000000000000000000000000000000000000000000000000000000000000000000000000000000000000000000000000000000000000000000000000000000000000000000000000000000000000000000000000000000000000000000000000000000000000000000000000000000000000000000000000000000000000000000000000000000000000000000000000000000000000000000000000000000000000000000000000000000000000000000000000000000000000000000000000000000000000000000000000000000000000000000000000000000000000000000000000000000000000000000000000000000000000000000000000000000000000000000000000000000000000000000000000000000000000000000000000000000000000000000000000000000000000000000000000000000000000000000000000000000000000000000000000000000000000000000000000000000000000000000000000000000000000000000000000000000000000000000000000000000000000000000000000000000000000000000000000000000000000000000000000000000000000000000000000000000000000000000000000000000000000000000000000000000000000000000000000000000000000000000000000000000000000000000000000000000000000000000000000000000000000000000000000000000000000000000000000000000000000000000000000000000000000000000000000000000000000000000000000000000000000000000000000000000000000000000000000000000000000000000000000000000000000000000000000000000000000000000000000000000000000000000000000000000000000000000000000000000000000000000000000000000000000000000000000000000000000000000000000000000000000000000000000000000000000000000000000000000000000000000000000000000000000000000000000000000000000000000000000000000000000000000000000000000000000000000000000000000000000000000000000000000000000000000000000000000000000000000000000000000000000000000000000000000000000000000000000000000000000000000000000000000000000000000000000000000000000000000000000000000000000000000000000000000000000000000000000000000000000000000000000000000000000000000000000000000000000000000000000000000000000000000000000000000000000000000000000000000000000000000000000000000000000000000000000000000000000000000000000000000000000000000000000000000000000000000000000000000000000000000000000000000000000000000000000000000000000000000000000000000000000000000000000000000000000000000000000000000000000000000000000000000000000000000000000000000000000000000000000000000000000000000000000000000000000000000000000000000000000000000000000000000000000000000000000000000000000000000000000000000000000000000000000000000000000000000000000000000000000000000000000000000000000000000000000000000000000000000000000000000000000000000000000000000000000000000000000000000000000000000000000000000000000000000000000000000000000000
