This file was generated by Ched 2.7.0.0.
#TITLE ""
#ARTIST ""
#DESIGNER ""
#DIFFICULTY 0
#PLAYLEVEL
#SONGID ""
#WAVE ""
#WAVEOFFSET 0
#JACKET ""
#REQUEST "ticks_per_beat 480"
#00002: 4
#BPM01: 142
#00008: 01
#TIL00: ""
#VOLUME: ""
#HISPEED 00
#MEASUREHS 00
#0051b:13130000
#00515:0013001300000000
#00518:00001313
#00512:0000000000130013
#00510:41
#0061b:13
#00615:0013000000000000
#00612:0000001300000013
#00618:00131300
#00718:13130000
#00715:0013001300000000
#0071b:00001313
#00712:0000000000130013
#0081b:00131300
#00812:0000001300000000
#00818:13
#00815:0013000000000000
#01315:0013000000000000
#01314:0000001300000000
#0131a:00130000
#01313:0000000000130000
#01319:0013
#01312:0000000000000013
#01318:00000013
#0131b:23
#01416:0000000000140000
#0141a:0000130024000014
#01413:0013000000000000
#01419:13
#01414:0000001300000000
#01412:00000024
#0161a:14
#01614:0014
#01618:00000034000000001400000000000000
#01915:0000001300000013
#01912:0000000000130000
#01918:00000013
#0191b:0013
#02015:00000013
#01815:0013
#01819:00000033000000000000000000000000
#02418:00000013
#02812:0013
#03012:00000013
#0341b:00000013
#02912:0000001300000013
#02915:0013
#02918:1300000000130000
#0291b:00000013
#00118:13
#00112:0013
#00119:00530000000000000000000000000000
#0011a:0053000000000000
#0011b:00000053000000000000000000000000
#00113:00000000000000000053000000000000
#00114:0000000000530000
#00115:00000000000000000000005300000000
#00218:13
#00212:0013
#00219:00530000000000000000000000000000
#0021a:0053000000000000
#0021b:00000053000000000000000000000000
#00213:00000000000000000053000000000000
#00214:0000000000530000
#00215:00000000000000000000005300000000
#00315:0013
#0031b:13
#00314:00000000000000000053000000000000
#00313:0000000000530000
#00312:00000000000000000000005300000000
#0031a:00530000000000000000000000000000
#00319:0053000000000000
#00318:00000053000000000000000000000000
#00415:0013
#0041b:13
#00414:00000000000000000053000000000000
#00413:0000000000530000
#00412:00000000000000000000005300000000
#0041a:00530000000000000000000000000000
#00419:0053000000000000
#00418:00000053000000000000000000000000
#00918:0013001300000000
#00912:23130000
#00915:00001313
#0091b:0000000000130013
#01115:13130000
#01118:0013001300000000
#01112:00001313
#0111b:0000000000130013
#01110:41
#01212:00131300
#0121b:0000001300000000
#01215:13
#01218:0013000000000000
#01012:13
#01018:0013000000000000
#01015:00131300
#0101b:0000001300000000
#01512:0000001414000000
#0151a:1400000000000014
#02318:0000001300000013
#0231b:0000000000130000
#02315:00000013
#02312:0013
#02519:00130013
#02514:00130013
#02516:0014
#0251b:23
#02512:23
#02619:00150000
#02612:14151600
#0261a:14
#02618:0016
#06014:00140000
#06013:0014
#06012:00000014
#06119:00130000
#0611a:0013
#0611b:00000013
#06214:00150000
#06213:0015
#06212:00000015
#0631b:00130000
#0631a:0013
#06319:00000013
#0651a:00140000
#06519:0014
#06518:00000014
#06412:00150000
#06413:0015
#06414:00000015
#06716:0014
#06719:25
#04218:1400000000140000
#04214:0014
#04212:00000014
#0421a:0000000000000014
#02218:0013
#02214:00000033000000000000000000000000
#0321b:0013
#0331b:0000001300000013
#03318:0013
#03315:1300000000130000
#03312:00000013
#03615:0013
#03612:14
#05318:00002414
#05314:0000000000240000
#05412:2400001400000014
#0541a:1400000000140000
#05416:00001414
#0541f:21
#05518:1400000014000013
#05515:00000013
#05514:0000001400000000
#05510:41
#0581a:0000001400000014
#05812:1400000000140000
#05816:00001414
#05918:0000001400000000
#05914:1414
#05912:0000000000140000
#05618:00000014000000000000000000001400
#05614:00000000000014000000001400000000
#05612:24
#0561a:0024
#05718:00000014000000000000000000000000
#05714:0000001400000000
#0571a:0014
#05712:24
#0441f:11
#04412:23
#04415:0023
#02712:23
#02710:41
#04518:23
#0451b:0023
#04818:2625
#04812:00260000
#04813:00000025
#05018:24000024
#05014:0024000000000024
#05012:0000002400240000
#0501a:00242400
#05116:24343434343434343434343400000000
#05115:0000000000000000000000000000000000000000000000000036363636363636
#01712:23
#01719:00000033000000000000000000000000
#01714:00000000000000000000003300000000
#01710:41
#06612:00260000
#06618:00000026
#0461b:23
#04618:0023
#04715:23
#04712:0023
#04918:2424
#04914:00240024
#0211b:23
#02114:00000033000000000000000000000000
#02119:00000000000000000000003300000000
#0311b:23
#03512:26
#04118:24
#03719:00340000000000340000000000000000
#03718:0034003400000000
#03717:00000034003400000000000000000000
#03713:00000000000000000034000000000034
#03714:0000000000340034
#03715:00000000000000000000003400340000
#03918:00000000000000330000000000000000
#03919:0000003300000000
#0391a:00000000003300000000000000000000
#03915:00000000000000000000000000000033
#03914:0000000000000033
#03913:00000000000000000000000000330000
#03910:41
#0701b:63
#0165a:64000014
#01652:00000014
#01654:0064
#01658:0054
#01855:0063
#01852:00000013
#0255b:13
#02552:13
#02852:0053
#02855:00000013
#03652:54000013
#03655:0063
#0085b:0063
#01252:0053
#00658:0053
#01055:0063
#0155a:64
#01552:0054
#01557:00000014000000000000000000000000
#01555:00000000000000000000001400000000
#02455:0013
#02658:0016
#02652:0016
#06756:0054
#06759:65
#03858:00140000
#03854:00000014
#04258:54
#0425a:0000140000000064
#05252:1c
#02258:0053
#0225b:00000013
#02958:53
#02058:0013
#0305b:0013
#0325b:0063
#03258:00000013
#03355:63
#03452:0013
#03552:66
#05358:00000014
#05558:5414
#0555a:00000014000000000000000000000000
#0545a:64
#05852:54
#05954:64006414
#05952:00000014000000000000240000000000
#0575a:0064
#05758:00000014
#006380:0013
#0063b0:00000023
#0083b0:0013
#008380:00000023
#010350:0013
#010320:00000023
#012320:0013
#012350:00000023
#0153a0:14
#015370:00000024000000000000000000000000
#015320:0014
#015350:00000000000000000000002400000000
#0163a0:14000024
#016380:00000034000034003400000000000000
#016341:0000001434000000
#016321:00000024
#0173b1:13
#017391:00000033000000000000000000000000
#017381:0000002300000000
#017321:0013
#017341:00000000000000000000003300000000
#017351:0000000000000023
#0183b1:13
#018391:00000033000000000000000000000000
#018381:0000002300000000
#018351:0013
#018321:00000023
#0193b1:13230000
#0203b1:13000033000000000000000000000000
#020381:0000003323000000
#021321:13
#021341:00000033000000000000000000000000
#021351:0000002300000000
#0213b1:0013
#021391:00000000000000000000003300000000
#021381:0000000000000023
#022321:13
#022341:00000033000000000000000000000000
#022351:0000002300000000
#022381:0013
#0223b1:00000023
#023321:13230000
#024321:13000033000000000000000000000000
#024351:0000003323000000
#027381:1300002300000000
#0273b1:00000033000000000000000000000000
#027351:0000000013000023
#027321:00000000000000000000003300000000
#028381:1300002300000000
#0283b1:00000033000000000000000000000000
#028321:0013
#028351:00000023
#029381:13
#0293b1:00230000
#0303b1:1300003323000000
#030381:00000033000000000000000000000000
#031351:1300002300000000
#031321:00000033000000000000000000000000
#031381:0000000013000023
#0313b1:00000000000000000000003300000000
#032351:1300002300000000
#032321:00000033000000000000000000000000
#0323b1:0013
#032381:00000023
#033351:13
#033321:00230000
#034321:1300003323000000
#034351:00000033000000000000000000000000
#035321:16
#036321:34000023
#036351:0033
#0373a1:1424
#037391:00340000000000340000000000000000
#037381:0034003400000000
#037371:00000034343400000000000000000000
#037320:0014
#037330:00000000000000000034000000000034
#037340:0000000000340034
#037350:00000000000000000000003434340000
#038320:24
#0383a1:14
#038391:0034000000000000
#038381:00240000
#038321:0014
#038331:0000000000340000
#038341:00000024
#0393b1:13330000
#0393a1:00000000003300000000000000000000
#039391:0000003300000000
#039381:00000000000000332300000000000000
#039320:00001333
#039330:00000000000000000000000000330000
#039340:0000000000000033
#039350:00000000000000000000000000000033
#040350:23
#0403a1:14
#040391:00000034000000000000000000000000
#040381:0000002400000000
#040321:0014
#040331:00000000000000000000003400000000
#040341:0000000000000024
#041381:1454545454545454
#041391:00540054005400540054005400540054
#042381:34
#0423a1:00240000
#0423a1:0000000000000014
#043381:00000023
#051361:14343434343434343434343400000000
#051351:0000000000000000000000000000000000000000000000003636363636363636
#052321:2c
#0543a1:14
#054381:00240000
#055381:14
#0553a1:00000024000000000000000000000000
#0573a1:0014
#057381:00000024
#058321:14
#058341:00240000
#059341:14
#059321:00000024000000000000000000000000
#059341:00001424
#059321:0000000000540000
#0603a1:14
#0613a1:24
#061320:13
#062320:23
#062391:15
#063391:25
#063320:13
#064320:23
#064391:15
#065391:25
#065320:14
#066320:24
#0663b1:13
#066391:0025
#066320:0013
#067320:25
#067391:15
#067361:0054
#0703b1:23
#001980:13
#0019b0:00000023000000000000000000000000
#001920:0013
#001950:00000000000000000000002300000000
#002980:13
#0029b0:00000023000000000000000000000000
#002920:0013
#002950:00000000000000000000002300000000
#0039b0:13
#003980:00000023000000000000000000000000
#003950:0013
#003920:00000000000000000000002300000000
#0049b0:13
#004980:00000023000000000000000000000000
#004950:0013
#004920:00000000000000000000002300000000
