This file was generated by Ched 2.7.0.0.
#TITLE ""
#ARTIST ""
#DESIGNER ""
#DIFFICULTY 0
#PLAYLEVEL
#SONGID ""
#WAVE ""
#WAVEOFFSET 0
#JACKET ""
#REQUEST "ticks_per_beat 480"
#00002: 4
#BPM01: 172
#00008: 01
#TIL00: ""
#VOLUME: ""
#HISPEED 00
#MEASUREHS 00
#03818:2616
#03810:41
#06618:14
#0661f:11
#06718:14
#06814:14
#06914:14
#0701a:14
#07112:14
#07314:14
#08414:14
#08418:0014
#08512:14
#00418:0014
#00414:14
#00410:41
#00514:14
#00618:14
#00614:0014
#00718:14
#01018:14
#01118:14
#0221a:14
#0231a:14
#00012:14
#00112:14
#0021a:14
#0031a:14
#01214:14
#01314:14
#0141a:14
#01410:41
#01712:14
#01814:0014
#0181a:14
#0191a:14
#02012:14
#02018:0014
#02112:14
#0151a:14
#01612:14
#02412:14
#02512:14
#02618:14
#02610:41
#02718:14
#02814:14
#02914:14
#03912:1616
#04018:16
#04012:0016
#04212:2616
#04318:1616
#04412:16
#04418:0016
#07412:0016
#07418:26
#0741f:00210000
#07612:1616
#07610:41
#07718:1616
#07818:0016
#07812:26
#08018:1616
#08112:1616
#08218:16
#08212:0016
#04618:2616
#04712:1616
#04818:16
#04812:0016
#05012:2616
#05118:1616
#05212:16
#05218:0016
#0541a:14
#05410:41
#0551a:14
#05612:14
#05712:14
#07218:14
#08618:14
#08614:0014
#0871a:14
#008320:1400000000000034
#009320:0024
#0303a0:14
#0313a0:24
#032320:14
#033320:24
#034380:14
#035380:24
#036340:14
#037340:24
#041380:1626
#045320:1626
#049380:1626
#053320:1626
#0583a0:14
#059380:0024
#060320:14
#061340:0024
#062380:14
#0633a0:0024
#064340:14
#065320:0024
#075380:1626
#079320:1626
#083380:1626
#088340:1400000000000034
#089320:00003434
#090320:24
