This file was generated by Ched 2.7.0.0.
#TITLE ""
#ARTIST ""
#DESIGNER ""
#DIFFICULTY 0
#PLAYLEVEL
#SONGID ""
#WAVE ""
#WAVEOFFSET 0
#JACKET ""
#REQUEST "ticks_per_beat 480"
#00002: 4
#BPM01: 172
#00008: 01
#TIL00: ""
#VOLUME: ""
#HISPEED 00
#MEASUREHS 00
#0661f:11
#06618:00140014
#06617:0013
#06619:25
#08914:0000001400000000
#08918:00140000
#08912:0014000000140000
#0891a:0024
#0881a:2400000000140000
#08814:0014
#08818:0000001400000000
#08812:0000000000000024
#08718:0000000000000013
#08714:0000000000130000
#08716:00000013
#08712:0013000013000000
#08719:00000000000000000000001300000000
#08717:00000013000000000000000000000000
#08316:0000000000000014
#0831c:0012
#0831a:00140014
#08312:2615241322000000
#08318:16
#0831b:0000002300000000
#08319:0025000000000000
#08515:0000000000000013
#08519:0000000000130000
#08517:00000013
#0851b:0013000013000000
#08516:00000013000000000000000000000000
#08412:1313000013000013
#0841b:0000000013000013
#08415:00130013
#08418:00000013000013000000130000000000
#0841a:24
#05212:1300000013131300
#0521b:13130000
#05214:0033000000000013
#05217:00000000000000000013001300000000
#05213:00330000000000000000000000000000
#05215:00000033000000000000000000000000
#0521a:00000000003300000000000000000000
#05219:0000003300000000
#05218:00000000000000330000000000000000
#04118:0000000000132300
#04115:0000000000231300
#04116:0014001400000000
#0411a:2424
#04112:00240000
#00715:00000000000000000000001300001300
#0071b:0000001300130000
#00718:00000013
#00717:00000013000000000000000000000000
#00712:0013130013000000
#02112:0013130000000000
#0211b:00000013000000000000130000000000
#02115:00000000000013000000001300001300
#02118:00001313
#00518:0000000000000013
#00512:0000001300130000
#00515:00000013
#0051b:0013130013000000
#00516:00000013000000000000000000000000
#01918:0000001300000013
#01915:00001313
#01912:00000013000000000000130000000000
#0191b:0013130000000000
#08212:0000005616000013
#0821b:00000013
#08215:00000000000000000000001300000000
#08218:0000000000130000
#0821a:0053
#08219:00540000
#08214:0053000000000000
#07915:0000000026000013
#07918:00000013
#07912:00130000
#0791b:0013
#07914:0000001300000000
#07919:0013000000000000
#07916:24240000
#08015:00000000001300130000001300000000
#08018:0000131300130000
#08012:00130013000000000013000000000000
#0801b:1313000013000000
#0811a:2414
#08112:00140014
#08114:0000001400000000
#08118:0014000000000000
#08116:00242414
#05612:00130013
#0561b:0000000000130000
#05617:0000000000005313
#05619:00000000000000000000005300000000
#05517:0000001300130000
#05512:0013
#0551b:13000053
#05519:00000000000000000000005300000000
#0541b:00130013
#05412:0000000000130000
#05416:0000000000005313
#05410:41
#05414:00000000000000000000005300000000
#05316:14002414
#05314:00140000
#05319:0014000000000000
#05313:0000001400000000
#0531a:24
#05318:00240000
#01715:00001313
#01718:0000000000130000
#01712:00130000
#01717:0013000000000000
#0171b:0000001300000000
#00318:0000002400001300
#00315:00000013
#00312:2424
#0031a:0024
#00316:00240000
#00314:0024000000000000
#0861b:1313000013000013
#08612:2400000013000013
#08618:00130013
#08615:00000013000013000000130000000000
#06212:13
#06218:00000013000000000013000000000000
#06213:0000000000130000
#06215:0013000000000000
#06214:0013
#06217:00000000000000000000001300001300
#0621a:24
#05912:00000013000000001300000000000000
#05917:0013000000000000
#0591b:00000013
#0591a:00000000000000330000000000330000
#05919:0000003300000033
#05918:00000000003300000000000000000033
#05915:00000000000000000000003300000000
#05914:0000000000330000
#05913:00000000000000000033000000000000
#05817:00000000000000000000000000130000
#05812:0013130000001300
#0581b:0000001300000000
#05815:00000000000000130000000000000000
#05818:24000013000000000000003300000000
#05819:0000000000330000
#0581a:00000000000000000033000000000000
#06316:0013000013131300
#06317:0000000000000013
#06319:00000000000000000013001300000000
#0631b:00000013000000000000000000000000
#07818:00000000000013000000001300000000
#07815:0000000000130000
#07812:24131300
#07817:0014000000000000
#0781a:14
#07517:0000000000000013
#07514:00140000
#07518:00130000
#0751b:00000013
#07512:00000013
#07516:1413
#07519:0000001300000000
#0751a:0014
#07513:0013000000000000
#0771a:2414
#07712:00140026
#07714:0000001400000000
#07718:0014000000260000
#07716:0000240024000014
#07612:13000000000000000000001300000000
#0761b:0000000000130000
#07614:0000001313000000
#07619:00000000000000130000000000000000
#07618:0013130000000000
#07615:00000013000000000000000000000000
#07610:41
#07415:00000000000000000000001300000000
#07418:2626000000130000
#0741b:0013
#0741f:00210000
#07412:002600262c0000000000000000000000
#0731b:13
#07318:0013000000000000
#07312:23140016
#07315:0000001400000016
#07319:00330033000000001500000000000000
#07316:0000000000150000
#07314:00000000003400340000000000360036
#07317:00000000000000000035003500000000
#07118:0014000000000013
#07115:00000013
#07116:00140000
#07112:0014
#07114:0000001400000000
#0711b:0013
#0711a:14
#07215:0013001300000000
#0721a:14
#0721b:0013
#07212:2413
#07218:0000140000130013
#07214:00000014
#0701b:00000013
#07012:24130000
#06919:1500000000000013
#06912:15141300
#0691b:0013
#0691a:00140000
#06914:0000000000000013
#06812:1515
#06816:00140014
#06819:0015
#06714:00140014
#06716:0013
#06414:0000001300130013
#06417:00130013
#06412:24130013
#06416:0013
#0641b:0013
#06419:0013000000130000
#06117:0013000013131300
#06114:00000000000000000013001300000000
#06112:00000013000000000000000000000000
#06016:00000000000000000000001300001300
#06015:00000013000000000013000000000000
#0601a:0000000000130000
#06018:0013000000000000
#06019:0013
#06012:24
#05115:0000001300000013
#05118:00140013
#05116:1413
#0511a:0014
#05114:00130000
#05113:0013000000000000
#05015:00001400000013000000001300000000
#0501b:00131300
#05012:14
#05018:0000000000130000
#0501a:24
#04912:0000001400002400
#0491a:0014000000240000
#04916:2400240024000014
#04817:0000000000131300
#04812:00000000000000000000001300001300
#04814:0000001313000000
#04819:00000000000000130000000000000000
#04816:13000013000000000000000000000000
#0481b:0013130000000000
#04717:00001313
#04712:00001413
#04718:0000001300000000
#04716:14
#04714:00140000
#04719:00130000
#0471a:0013000000000000
#04618:00000000000000000000001300000000
#04615:0000000000130000
#04612:00230000000000001300000000000000
#04616:00240000
#04614:00000023000000000000000000000000
#04619:0023000000000000
#0461b:23
#04516:00130013
#04517:1313
#04513:00000000000000330000000000000033
#04514:0000003300000033
#04515:00000000003300000000000000330000
#0451a:00000033000000000000003300000000
#04519:0033000000330000
#04518:00330000000000000033000000000000
#04414:00001300000000000013000000000000
#04417:00130000000000000000000000000000
#04416:00000000130000130000000000000000
#04419:00000013000000000000130000000000
#04412:13000000000000000000001300000000
#0441b:0013
#0431b:00001313
#04316:00001413
#0431a:0000001300000000
#04312:14
#04314:00140000
#04319:00130000
#04318:0013000000000000
#0421b:00000000000000000000001300000000
#04216:0000000013130000
#0421a:14
#04219:0000001300000000
#04212:24130000
#03912:00001313
#03917:00000013
#03913:0000001300000000
#0391a:14
#03916:0014
#03918:00140000
#03914:00130000
#03915:0013000000000000
#04012:00000000000000000000001300000000
#04019:0013000000000000
#04016:00130000000000000000000000000000
#04017:00130000
#04014:00000013000000000000000000000000
#0401b:13
#04018:00000000000000130000000000000000
#04015:0013
#03812:14000000000000000000001300000000
#03817:0000000013130000
#03814:0000001300000000
#0381b:00130000
#0381a:24
#03810:41
#03417:0013
#0341b:13130000
#03419:0000001300000013
#03412:24242424
#03016:0013
#03014:0000001300000013
#03012:00130000
#0301a:24242424
#03718:00000013000013000000000000000000
#03715:0013000000000000
#03716:0000000000242424
#03615:00001300000000000000001300000000
#03618:00000013000000000000130000000000
#0361b:13
#03515:0000000000000013
#03518:0013000000001300
#0351b:0013
#0351a:0000001300000000
#03519:00130000
#03517:13
#03512:24242424
#03318:1300001300000013
#03315:0013000000001300
#0331b:0013
#03312:24132400
#0331a:00240024
#03219:0000001300000013
#03215:00130013
#03214:0013000000130000
#03218:0013
#0321b:13
#0321a:00240024
#03212:2424
#03118:0000000000000013
#03115:0013000000001300
#03112:0013
#03113:0000001300000000
#03114:00130000
#03116:13
#0311a:24242424
#02915:00000000000000000000000000130013
#02918:0000000000000013
#0291a:00000014
#02916:0000130000140000
#02912:0014
#0291b:0013001300000000
#02812:0000130000001313
#0281b:00000013
#02817:00130000
#02815:0013001300130000
#02818:1313
#02718:0000001300130000
#02712:00000013
#02716:00130000
#0271b:0013130000000013
#02715:00000000000000001300000000000013
#02612:0000130000000013
#02617:00130000
#02618:0013
#02615:0000001300130000
#0261b:23000013
#02619:0013000000000000
#02610:41
#02516:00000013
#02517:00131300
#02512:0013001300000000
#0241b:0000130000001313
#02412:00000013
#02416:00130000
#02418:0013001300130000
#02415:1313
#02315:0000001300130000
#0231b:00000013
#02317:00130000
#02312:0013130000000013
#02318:00000000000000001300000000000013
#0221b:2300130000000013
#02216:00130000
#02215:0013
#02218:0000001300130000
#02212:13000013
#02214:0013000000000000
#02017:0000000000000013
#02018:0000001300000000
#02015:00130000
#0201b:0013
#0201a:24
#02012:24
#01816:0000000000000013
#01815:0000001300000000
#01818:00130000
#01812:2413
#0181a:24
#01616:0000000000000013
#0161b:00000013
#01615:0000001300130000
#01618:0013
#01617:13
#01612:00130000
#01512:00130013
#01514:00000000000000000000000000000013
#01517:0013000000000013
#01515:0000000000130000
#01518:0013
#0151b:0000001300000000
#01315:0000130000000013
#01312:0013000000001300
#01318:0000001300130000
#0131b:0013
#01217:0000000000000013
#01212:00000013
#01215:0000000000130000
#01218:0013
#0121b:0000001300000000
#01216:00130000
#0101b:1300000000000013
#01018:0013000013000000
#01012:2400001300000000
#01015:00130000
#01116:00000000000000000000000000000013
#0111b:0000000000000013
#01114:0000001300000000
#01117:00130000
#01112:0013000000000000
#01119:0013
#00916:0000000000140000
#00918:0013001300000000
#00915:00130000
#0091a:00000024
#00912:0024
#0081b:13
#00816:0014
#00812:1400001400000024
#0081a:0000000000000024
#0061b:0000000013000013
#00618:0000001300000000
#00615:00130000
#0061a:24
#00612:24
#00412:2400000013000013
#00415:0000001300000000
#00418:00130000
#0041a:24
#00410:41
#00212:00000013
#0021b:0000000000005313
#00217:0000000000130000
#00219:00000000000000000000005300000000
#0011b:0000000000130000
#00115:0013
#00118:1300001300000000
#00117:00000053
#00119:00000000000000000000005300000000
#0001b:23000013
#00012:0000000000005313
#00016:0000000000130000
#00014:00000000000000000000005300000000
#05718:0000000000001414
#05714:00000000000000000000000000140014
#05712:2424
#0571a:00242400
#05716:0024002400000000
#01416:0000000000000013
#01418:2300000000130000
#01415:0013
#01412:0013001300000000
#0141b:00130013
#01410:41
#06517:0000000000222222
#09054:34
#09058:44
#05352:00000014
#05356:00000054
#03755:0000001300000000
#03758:0000001300000000
#0255b:00000013
#02556:00000063
#02557:00135300
#0165b:00130013
#01656:0000000000000063
#01657:53
#01055:0000000000000013
#0105b:0000000000000063
#0885a:14
#08852:0000000000000014
#0895a:0014
#08652:34
#0865b:0000000000000063
#0845a:44
#08452:0000000000000053
#06452:14
#0625a:14
#06257:0000000000000053
#06052:14
#06056:0000000000000063
#05858:14
#01852:14
#0185a:14
#01856:0000000000000063
#0205a:14
#02052:14
#02057:0000000000000053
#0065a:14
#00652:14
#0065b:0000000000000063
#0045a:14
#00452:1400000000000053
#07956:14140000
#07955:0016
#07752:00000016
#07758:0000000000160000
#07852:34
#07857:0024000000000000
#0785a:64
#0505a:44
#05055:0024000000000000
#05052:54
#04952:00000014
#0495a:0000000000140000
#04252:34
#0425a:64
#0085a:0000000000000014
#00852:1400000000000014
#0085b:63
#07452:001c0000
#04656:00140000
#0385a:44
#03852:54
#08356:0000000000000024
#0835a:00000064
#05252:53
#0525b:00630000
#01755:00000063
#01752:00130000
#00358:00000053
#00355:00000063
#08156:00000054
#08152:00000014
#07557:0000000000000023
#07554:00140000
#0755b:00000063
#07556:14
#0755a:0014
#0735b:63
#07358:0023000000000000
#07352:00540056
#07355:0000002400000026
#07359:0065
#07356:0000000000250000
#07254:00000014
#07258:00140000
#0705b:00000013
#07052:00130000
#06952:0013
#0695b:0013
#06357:0000000000000053
#06356:00000063
#06157:00000053
#0595b:00000063
#05952:0053
#05156:14
#0515a:0014
#05158:00140000
#04757:00000053
#04756:14
#04752:0014
#04754:00140000
#04556:00630063
#04557:5353
#0435b:00000063
#04352:14
#04356:0014
#04354:00140000
#03952:00000053
#0395a:14
#03956:0014
#03958:00140000
#03457:0053
#03056:0063
#0365b:13
#02852:0000000000000053
#0285b:00000013
#02857:00130000
#02752:00000013
#02756:00130000
#02652:0000000000000053
#02657:00130000
#0265b:00000013
#02956:00130000
#0245b:0000000000000063
#02452:00000013
#02456:00130000
#0235b:00000013
#02357:00130000
#0225b:0000000000000063
#02256:00130000
#02252:00000013
#01552:00130013
#01355:0000000000000023
#01352:00000053
#01358:0000000000230000
#0135b:0063
#01257:0000000000000053
#01456:0000000000000063
#0145b:00130013
#000320:13
#000330:0033000000000000
#000340:00330000
#000350:0000003300000000
#000360:0023
#0003b1:0000000013230000
#001351:0013002300000000
#001321:00000013
#002321:23
#0023b0:13
#0023a0:0033000000000000
#002390:00330000
#002380:0000003300000000
#002370:0023
#002321:0000000013230000
#003381:00000013
#0043a1:24
#003350:00000013
#004320:24
#0043b0:0000000013230000
#004351:0000000000132300
#004380:0000000000001323
#004321:0000000000000013
#005361:0023000000000000
#006321:0000000013230000
#006380:0000000000132300
#006351:0000000000001323
#0063b0:0000000000000013
#007370:0023000000000000
#0083b0:13
#008360:0000002400000000
#0083a0:0000000000140024
#010350:0000000000130023
#0103b1:0000000000000013
#011371:0023000000000000
#011361:0000000000130023
#0123b1:13230000
#012371:0000000000000013
#0133b1:0023000000000000
#0133b1:00001323
#013381:0000000000530000
#013320:00000013
#013350:0000000000000053
#014320:23
#014360:0000000000000013
#015320:0023000000000000
#016370:13
#0163b0:00230000
#016360:0000000000000013
#017320:0023000000000000
#017350:00000013
#018320:24
#018370:0000000013230000
#018341:0000000000132300
#018390:0000000000001323
#018361:0000000000000013
#019321:0023000000000000
#020361:0000000013230000
#020390:0000000000132300
#020341:0000000000001323
#020370:0000000000000013
#0213b0:0023000000000000
#0223b0:0000000000000013
#023370:0023000000000000
#0243b0:0000000000000013
#025370:0023000000000000
#025370:0013
#0253b0:00000023
#025361:00000013
#026321:23
#026321:0000000000000013
#027361:0023000000000000
#028321:0000000000000013
#029361:0023000000000000
#030361:0013
#030321:00000023
#034371:0013
#0343b1:00000023
#036321:00130000
#036361:0000002300000000
#0363b0:0000001323000000
#036361:0013
#036321:0000000000230000
#0363b1:00000013
#036371:0000000000000023
#036320:0000000000000013
#037320:23
#037371:13
#0373b1:0023000000000000
#037351:0000132300000000
#038321:14
#038361:00230000
#038321:0000000013230000
#038371:0000000000001323
#038320:0000000000000013
#039360:23
#039320:00000013
#040360:23
#040320:00000000001300230000000000000000
#0403b0:00000000000000000013002300000000
#040380:0000000000001323
#040351:0000000000000013
#041351:23
#0423a1:14
#042371:00230000
#0423b1:0000000013230000
#042361:0000000000001323
#0423b0:0000000000000013
#043370:23
#0433b0:00000013
#044370:23
#0443b0:00000000001300230000000000000000
#044370:0000000000001323
#044321:0000000000000013
#045321:23
#045370:13
#045380:00330000000000000000000000000000
#045390:0033000000000000
#0453a0:00000033000000000000000000000000
#0453b0:00230000
#045361:00130000
#045351:00000000003300000000000000000000
#045341:0000003300000000
#045331:00000000000000330000000000000000
#045321:0023
#045370:0013
#045380:00000000000000000033000000000000
#045390:0000000000330000
#0453a0:00000000000000000000003300000000
#0453b0:00000023
#045361:00000013
#045351:00000000000000000000000000330000
#045341:0000000000000033
#045331:00000000000000000000000000000033
#046321:23
#0463b1:0000000013230000
#046321:0000000000001323
#0463b0:0000000000000013
#0473b0:23
#047370:00000013
#0483b0:23
#050320:14230000
#050350:0054000000000000
#050320:0000000013230000
#0503b0:0000000000001323
#050321:0000000000000013
#051321:23
#052321:13
#052331:00330000000000000000000000000000
#052341:0033000000000000
#052351:00000033000000000000000000000000
#052361:00230000
#0523b0:00130000
#0523a0:00000000003300000000000000000000
#052390:0000003300000000
#052380:00000000000000330000000000000000
#052370:0023
#053320:00001424
#053361:00000014
#0543a1:24
#054320:1323
#054340:0033003300000000
#054360:00330000
#054371:0000000013230000
#055321:0013002300000000
#055351:00000013
#056351:23
#0563b0:1323
#056390:0033003300000000
#056370:00330000
#056361:0000000013230000
#0583b1:0013
#0583a1:00000000000000000033000000000000
#058391:0000000000330000
#058381:00000000000000000000003300000000
#058371:00000023
#058321:0000000000000013
#059321:0023000000000000
#059371:00130000
#059381:00000000003300000000000000000000
#059391:0000003300000000
#0593a1:00000000000000330000000000000000
#0593b1:0023
#059320:0013
#059330:00000000000000000033000000000000
#059340:0000000000330000
#059350:00000000000000000000003300000000
#059360:00000023
#0593b1:00000013
#0593a1:00000000000000000000000000330000
#059391:0000000000000033
#059381:00000000000000000000000000000033
#060371:23
#060381:0000132300000000
#060350:0000001323000000
#0603b0:0000000000001323
#060361:0000000000000013
#061321:0023000000000000
#061371:0000132300000000
#061340:0000001323000000
#061370:00000013
#0623a0:24
#062350:0000132300000000
#062381:0000001323000000
#062321:0000000000001323
#062370:0000000000000013
#0633b0:0023000000000000
#063360:0000132300000000
#063391:0000001323000000
#063361:00000013
#063321:0000000000000023
#063370:0000000000000013
#0643b0:23
#064390:0000000000000013
#064380:00000000000000000000000000000000000000000000000000000000000000000000000000000000000000000000000000000000000000000053000000530000
#0643a0:00000000000000000000000000000000000000000000000000000000000000000000000000000000000000000000000000000000000000000000005300000053
#065390:5300000053230000
#065380:00530000005300000053000000530000005300000053000000530000005300000053000000530000000000000000000000000000000000000000000000000000
#0653a0:00000053000000530000005300000053000000530000005300000053000000530000005300000053000000000000000000000000000000000000000000000000
#066320:15
#067320:25
#067391:15
#068391:25
#0703a1:1424
#070381:0034003400000000
#070361:00340000
#070320:0014
#070340:0000000000340034
#070360:00000034
#071320:24
#0733b0:13230000
#073390:00330033000000000000000000000000
#073380:0033000000000000
#073321:00142400
#073341:00000000003400340000000000000000
#073351:0000003400000000
#073390:00001525
#073370:00000000000000000035003500000000
#073360:0000000000350000
#073321:00000016
#073341:00000000000000000000000000360036
#073351:0000000000000036
#074321:26
#074321:0013
#074351:0000000000230000
#0743b1:00000013
#074381:0000000000000023
#074350:0000000000000013
#075320:23
#0753b0:00000013
#075370:0000000000000053
#0763b0:23
#0763b0:00000013
#076370:0000000000000023
#076321:0000000000000013
#077361:23
#0783a1:14
#078371:0054000000000000
#0783b1:00230000
#0783b1:0013
#078381:0000000000230000
#078321:00000013
#078351:0000000000000023
#078380:0000000000000013
#0793b0:23
#0803b0:00000013
#080370:0000000000000023
#080321:0000000000000013
#081361:23
#081361:00000014
#0823a1:24
#082340:130000000000000000000000000000000000000000000000000000000000000000000000000000000000000000000000000000000000000000000000000000000000000000000000000000000000000000000000000000000000000000000000000000000000000000000000000000000000000000000000000000000000000000000000000000000000000000000000000000000000000000000000000000000000000000000000000000000000000000000053000000000000000000000000000000000000000000000000000000000000000000000000000000000000000000000000000000000000000000000000230000000000000000000000000000000000000000000000000000000000000000000000000000000000000000000000000000000000000000000000000000000000000000000000000000000000000000000000000000000000000000000000000000000000000000000000000000000000000000000000000000000000000000000000000000000000000000000000000000000000000000000000000000000000000000000000000000000000000000000000000000000000000000000000000000000000000000000000000000000000000000000000000000000000000000000000000000000000000000000000000000000000000000000000000000000000000000000000000000000000000000000000000000000000000000000000000000000000000000000000000000000000000000000000000000000000000000000000000000000000000000000000000000000000000000000000000000000000000000000000000000000000000000000000000000000000000000000000000000000000000000000000000000000000000000000000000000000000000000000000000000000000000000000000000000000000000000000000000000000000000000000000000000000000000000000000000000000000000000000000000000000000000000000000000000000000000000000000000000000000000000000000000000000000000000000000000000000000000000000000000000000000000000000000000000000000000000000000000000000000000000000000000000000000000000000000000000000000000000000000000000000000000000000000000000000000000000000000000000000000000000000000000000000000000000000000000000000000000000000000000000000000000000000000000000000000000000000000000000000000000000000000000000000000000000000000000000000000000000000000000000000000000000000000000000000000000000000000000000000000000000000000000000000000000000000000000000000000000000000000000000000000000000000000000000000000000000000000000000000000000000000000000000000000000000000000000000000000000000000000000000000000000000000000000000000000000000000000000000000000000000000000000000000000000000000000000000000000000000000000000000000000000000000000000000000000000000000000000000000000000000000000000000000000000000000000000000000000000000000000000000000000000000000000000000000000000000000000000000000000000000000000000000000000000000000000000000000000000000000000000000000000000000000000000000000000000000000000000000000000000000000000000000000000000000000000000000000000000000000000000000000000000000000000000000000000000000000000000000000000000000000000000000000000000000000000000000000000000000000000000000000000000000000000000000000000000000000000000000000000000000000000000000000000000000000000000000000000000000000000000000000000000000000000000000000000000000000000000000000000000000000000000000000000000000000000000000000000000000000000000000000000000000000000000000000000000000000000000000000000000000000000000000000000000000000000000000000000000000000000000000000000000000000000000000000000000000000000000000000000000000000000000000000000000000000000000000000000000000000000000000000000000000000000000000000000000000000000000000000000000000000000000000000000000000000000000000000000000000000000000000000000000000000000000000000000000000000000000000000000000000000000000000000000000000000000000000000000000000000000000000000000000000000000000000000000000000000000000000000000000000000000000000000000000000000000000000000000000000000000000000000000000000000000000000000000000000000000000000000000000000000000000000000000000000000000000000000000000000000000000000000000000000000000000000000000000000000000000000000000000000000000000000000000000000000000000000000000000000000000
#082320:0000005500000000000000000000000000000000000000000000000000000000
#082381:000000000000000000000000000000000000000000000000000000000000000000000000000000000000000000000000000000000000000000000000000000000000000000000000000000000000000000000000000000000000000000000000000000000000000000000000000000000000000000000000000000000000000000000000000000000000000000000000000000000000000000000000000000000000000000000000000000000000000000000000000000000000000000000000000000000000000000000000000000000000000000000000000000000000000000000000000000000000000000000000160000000000000000000000000000000000000000000000000000000000000000000000000000000000000000000000000000000000000000000000565300000000000000000000000000000000000000000000000000000000000000000000000000000000000000000000000000000000000000000000000000000000000000000000000000000000000000000000000000000000000000000000000000000000000000000000000000000000000000000000560000000000000000000000000000000000000000000000000000000000000000000000000000000000000000000000000000000000000000000000000000000000000000000000000000000000000000000000000000000000000000000000000000000000000000000000000000000000000000000000000000000000000000000000000000000000000000000000000000000000000000000000000000000000000000000000000000000000000000000000000000000000000000000000000000000000000000000000000000000000000000000000000000000000000000000000000000000000000000000000000000000000000000000000000000000000000000000000000000000000000000000000000000000000000000000000000000000000000000000000000000000000000000000000000000000000000000000000000000000000000000000000000000000000000000000000000000000000000000000000000000000000000000000000000000000000000000000000000000000000000000000000000000000000000000000000000000000000000000000000000000000000000000000000000000000000000000000000000000000000000000000000000000000000000000000000000000000000000000000000000000000000000000000000000000000000000000000000000000000000000000000000000000000000000000000000000000000000000000000000000000000000000000000000000000000000000000000000000000000000000000000000000000000000000000000000000000000000000000000000000000000000000000000000000000000000000000000000000000000000000000000000000000000000000000000000000000000000000000000000000000000000000000000000000000000000000000000000000000000000000000000000000000000000000000000000000000000000000000000000000000000000000000000000000000000000000000000000000000000000000000000000000000000000000000000000000000000000000000000000000000000000000000000000000000000000000000000000000000000000000000000000000000000000000000000000000000000000000000000000000000000000000000000000000000000000000000000000000000000000000000000000000000000000000000000000000000000000000000000000000000000000000000000000000000000000000000000000000000000000000000000000000000000000000000000000000000000000000000000000000000000000000000000000000000000000000000000000000000000000000000000000000000000000000000000000000000000000000000000000000000000000000000000000000000000000000000000000000000000000000000000000000000000000000000000000000000000000000000000000000000000000000000000000000000000000000000000000000000000000000000000000000000000000000000000000000000000000000000000000000000000000000000000000000000000000000000000000000000000000000000000000000000000000000000000000000000000000000000000000000000000000000000000000000000000000000000000000000000000000000000000000000000000000000000000000000000000000000000000000000000000000000000000000000000000000000000000000000000000000000000000000000000000000000000000000000000000000000000000000000000000000000000000000000000000000000000000000000000000000000000000000000000000000000000000000000000000000000000000000000000000000000000000000000000000000000000000000000000000000000000000000000000000000000000000000000000000000000000000000000000000000000000000000000000000000000000000000000000000000000000000000000000000000000000000000000000000000000000000000
#0823b1:000000000000000000000000000000000000000000000000000000000000000000000000000000000000000000000000000000000000000000000000000000000000000000000000000000000000000000000000000000000000000000000000000000000000000000000000000000000000000000000000000000000000000000000000000000000000000000000000000000000000000000000000000000000000000000000000000000000000000000000000000000000000000000000000000000000000000000000000000000000000000000000000000000000000000000000000000000000000000000000000000000000000000000000000000000000000000000000000000000000000000000000000000000000000000000000000000000000000000000000000000000000000000000000000000000000000000000000000000000000000000000000000000000000000000000000000000000000000000000000000000000000000000000000000000000000000000000000000000000000000000000000000000000000000000000000000000000000000000000000053000000000000000000000000000000000000000000000000000000000000000000000000000000000000000000000000000000000000000000000000000000000000000000000000000000000000000000000000000000000000000000000000000000000000000000000000000000000000000000000000000000000000000000000000000000000000000000000000000000000000000000000000000000000000000000000000000000000000000000000000000000000000000000000000000000000000000000000000000000000000000000000000000000000000000000000000000000000000000000000000000000000000000000000000000000000000000000000000000000000000000000000000000000000000000000000000000000000000000000000000000000000000000000000000000000000000000000000000000000000000000000000000000000000000000000000000000000000000000000000000000000000000000000000000000000000000000000000000000000000000000000000000000000000000000000000000000000000000000000000000000000000000000000000000000000000000000000000000000000000000000000000000000000000000000000000000000000000000000000000000000000000000000000000000000000000000000000000000000000000000000000000000000000000000000000000000000000000000000000000000000000000000000000000000000000000000000000000000000000000000000000000000000000000000000000000000000000000000000000000000000000000000000000000000000000000000000000000000000000000000000000000000000000000000000000000000000000000000000000000000000000000000000000000000000000000000000000000000000000000000000000000000000000000000000000000000000000000000000000000000000000000000000000000000000000000000000000000000000000000000000000000000000000000000000000000000000000000000000000000000000000000000000000000000000000000000000000000000000000000000000000000000000000000000000000000000000000000000000000000000000000000000000000000000000000000000000000000000000000000000000000000000000000000000000000000000000000000000000000000000000000000000000000000000000000000000000000000000000000000000000000000000000000000000000000000000000000000000000000000000000000000000000000000000000000000000000000000000000000000000000000000000000000000000000000000000000000000000000000000000000000000000000000000000000000000000000000000000000000000000000000000000000000000000000000000000000000000000000000000000000000000000000000000000000000000000000000000000000000000000000000000000000000000000000000000000000000000000000000000000000000000000000000000000000000000000000000000000000000000000000000000000000000000000000000000000000000000000000000000000000000000000000000000000000000000000000000000000000000000000000000000000000000000000000000000000000000000000000000000000000000000000000000000000000000000000000000000000000000000000000000000000000000000000000000000000000000000000000000000000000000000000000000000000000000000000000000000000000000000000000000000000000000000000000000000000000000000000000000000000000000000000000000000000000000000000000000000000000000000000000000000000000000000000000000000000000000000000000000000000000000000000000000000000000000000000000000000000000000000000000000000000000000000000000000000000000000000000000000000000
#082391:00240000
#082320:00000000000000000000000000000000160056560056560026000000000000000000000000000000000000000000000000000000000000000000000000000000
#082350:000000000000000000000000000000000000000000000000000000000000000000000000000000000000000000000000000000000000000000000000000000000000000000000000000000000000000000000000000000000000000000000000000000000000000000000000000000000000000000000000000000000000000000000000000000000000000000000000000000000000000000000000000000000000000000000000000000000000000000000000000000000000000000000000000000000000000000000000000000000000000000000000000000000000000000000000000000000000000000000000000000000000000000000000000000000000000000000000000000000000000000000000000000000000000000000000000000000000000000000000000000000000000000000000000000000000000000000000000000000000000000000000000000000000000000000000000000000000000000000000000000000000000000000000000000000000000000000000000000000000000000000000000000000000000000000000000000000000000000000000000000000000000000000000000000000000000000000000000000000000000000000000000000000000000000000000000000000000000000000000000000000000000000000000000000000000000000000000000000000000000000000000000000000000000000000000000000000000000000000000005300000000000000000000000000000000000000000000000000000053000000000000000000000000000000000000000000000000000000000000000000000000000000000000000000000000000000000000000000000000005300000000000000000000000000000000000000000000000000000053000000000000000000000000000000000000000000000000000000000000000000000000000000000000000000000000000000000000000000000000000000000000000000000000000000000000000000000000000000000000000000000000000000000000000000000000000000000000000000000000000000000000000000000000000000000000000000000000000000000000000000000000000000000000000000000000000000000000000000000000000000000000000000000000000000000000000000000000000000000000000000000000000000000000000000000000000000000000000000000000000000000000000000000000000000000000000000000000000000000000000000000000000000000000000000000000000000000000000000000000000000000000000000000000000000000000000000000000000000000000000000000000000000000000000000000000000000000000000000000000000000000000000000000000000000000000000000000000000000000000000000000000000000000000000000000000000000000000000000000000000000000000000000000000000000000000000000000000000000000000000000000000000000000000000000000000000000000000000000000000000000000000000000000000000000000000000000000000000000000000000000000000000000000000000000000000000000000000000000000000000000000000000000000000000000000000000000000000000000000000000000000000000000000000000000000000000000000000000000000000000000000000000000000000000000000000000000000000000000000000000000000000000000000000000000000000000000000000000000000000000000000000000000000000000000000000000000000000000000000000000000000000000000000000000000000000000000000000000000000000000000000000000000000000000000000000000000000000000000000000000000000000000000000000000000000000000000000000000000000000000000000000000000000000000000000000000000000000000000000000000000000000000000000000000000000000000000000000000000000000000000000000000000000000000000000000000000000000000000000000000000000000000000000000000000000000000000000000000000000000000000000000000000000000000000000000000000000000000000000000000000000000000000000000000000000000000000000000000000000000000000000000000000000000000000000000000000000000000000000000000000000000000000000000000000000000000000000000000000000000000000000000000000000000000000000000000000000000000000000000000000000000000000000000000000000000000000000000000000000000000000000000000000000000000000000000000000000000000000000000000000000000000000000000000000000000000000000000000000000000000000000000000000000000000000000000000000000000000000000000000000000000000000000000000000000000000000000000000000000000000000000000000000000000000000000000000000000000000000000000000000000000000000000000000000000000000000000000000000000000
#0823a1:000000000000000000000000000000000000000000000000000000000000000000000000000000000000000000000000000000000000000000000000000000000000000000000000000000000000000000000000000000000000000000000000000000000000000000000000000000000000000000000000000000000000000000000000000000000000000000000000000000000000000000000000000000000000000000000000000000000000000000000000000000000000000000000000000000000000000000000000000000000000000000000000000000000000000000000000000000000000000000000000000000000000000000000000000000000000000000000000000000000000000000000000000000000000000000000000000000000000000000000000000000000000000000000000000000000000000000000000000000000000000000000000000000000000000000000000000000000000000000000000000000000000000000000000000000000000000000000000000000000000000000000000000000000000000000000000000000000000000000000000000000000000000000000000000000000000000000000000000000000000000000000000000000000000000000000000000000000000000000000000000000000000000000000000000000000000000000000000000000000000000000000000000000000000000000000000000000000000000000000000000000000000000000000000000000000000000000000000000000000000000000000000000000000000000000000000000000000000000000000000000000000000000000000000000000000000000000000000000000000000000000000000000000000000000000000000000000000000000000000000000000000000000000000000000000000000000000000000000000000000000000000000000000000000000000000000000000000000000000000000130000000000000000000000000000000000000000000000000000000000000000000000000000000000000000000000000000000000000000000053000000000000000000000000000000000000000000000000000000000000000000000000000000000000000000000000000000000000000000000000000000000000000000000000000000000000000000000000000000000000000000000000000000000000000000000000000000000000000000000000000000000000000000000000000000000000000000000000000000000000000000000000000000000000000000000000000000000000000000000000230000000000000000000000000000000000000000000000000000000000000000000000000000000000000000000000000000000000000000000000000000000000000000000000000000000000000000000000000000000000000000000000000000000000000000000000000000000000000000000000000000000000000000000000000000000000000000000000000000000000000000000000000000000000000000000000000000000000000000000000000000000000000000000000000000000000000000000000000000000000000000000000000000000000000000000000000000000000000000000000000000000000000000000000000000000000000000000000000000000000000000000000000000000000000000000000000000000000000000000000000000000000000000000000000000000000000000000000000000000000000000000000000000000000000000000000000000000000000000000000000000000000000000000000000000000000000000000000000000000000000000000000000000000000000000000000000000000000000000000000000000000000000000000000000000000000000000000000000000000000000000000000000000000000000000000000000000000000000000000000000000000000000000000000000000000000000000000000000000000000000000000000000000000000000000000000000000000000000000000000000000000000000000000000000000000000000000000000000000000000000000000000000000000000000000000000000000000000000000000000000000000000000000000000000000000000000000000000000000000000000000000000000000000000000000000000000000000000000000000000000000000000000000000000000000000000000000000000000000000000000000000000000000000000000000000000000000000000000000000000000000000000000000000000000000000000000000000000000000000000000000000000000000000000000000000000000000000000000000000000000000000000000000000000000000000000000000000000000000000000000000000000000000000000000000000000000000000000000000000000000000000000000000000000000000000000000000000000000000000000000000000000000000000000000000000000000000000000000000000000000000000000000000000000000000000000000000000000000000000000000000000000000000000000000000000000000000000000000000000000
#082381:000000000000000000000000000000000000000000000000000000000000000000000000000000000000000000000000000000000000000000000000000000000000000000000000000000000000000000000000000000000000000000000000000000000000000000000000000000000000000000000000000000000000000000000000000000000000000000000000000000000000000000000000000000000000000000000000000000000000000000000000000000000000000000000000000000000000000000000000000000000000000000000000000000000000000000000000000000000000000000000000000000000000000000000000000000000000000000000000000000000000000000000000000000000000000000000000000000000000000000000000000000000000000000000000000000000000000000000000000000000000000000000000000000000000000000000000000000000000000000000000000000000000000000000000000000000000000000000000000000000000000000000000000000000000000000000000000000000000000000000000000000000000000000000000000000000000000000000000000000000000000000000000000000000000000000000000000000000000000000000000000000000000000000000000000000000000000000000000000000000000000000000000000000000000000000000000000000000000000000000000000000000000000000000000000000000000000000000000000000000000000000000000000000000000000000000000000000000000000000000000000000000000000000000000000000000000000000000000000000000000000000000000000000000000000000000000000000000000000000000000000000000000000000000000000000000000000000000000000000000000000000000000000000000000000000000000000000000000000000000000000000000000000000000000000000000000000000000000000000000000000000000000000000000000000000000000000000000000000000000000560000000000000000000000000000000000000000000000000000000000000000000000000000000000000000000000000000000000000000000000565300000000000000000000000000000000000000000000000000000000000000000000000000000000000000000000000000000000000000000000000000000000000000000000000000000000000000000000000000000000000000000000000000000000000000000000000000000000000000000000000000000000000000000000000000000000000000000000000000000000000000000000000000000000000000000000000000000000000000000000000000000000000000000000000000000000000000000000000000000000000000000000000000000000000000000000000000000000000000000000000000000000000000000000000000000000000000000000000000000000000000000000000000000000000000000000000000000000000000000000000000000000000000000000000000000000000000000000000000000000000000000000000000000000000000000000000000000000000000000000000000000000000000000000000000000000000000000000000000000000000000000000000000000000000000000000000000000000000000000000000000000000000000000000000000000000000000000000000000000000000000000000000000000000000000000000000000000000000000000000000000000000000000000000000000000000000000000000000000000000000000000000000000000000000000000000000000000000000000000000000000000000000000000000000000000000000000000000000000000000000000000000000000000000000000000000000000000000000000000000000000000000000000000000000000000000000000000000000000000000000000000000000000000000000000000000000000000000000000000000000000000000000000000000000000000000000000000000000000000000000000000000000000000000000000000000000000000000000000000000000000000000000000000000000000000000000000000000000000000000000000000000000000000000000000000000000000000000000000000000000000000000000000000000000000000000000000000000000000000000000000000000000000000000000000000000000000000000000000000000000000000000000000000000000000000000000000000000000000000000000000000000000000000000000000000000000000000000000000000000000000000000000000000000000000000000000000000000000000000000000000000000000000000000000000000000000000000000000000000000000000000000000000000000000000000000000000000000000000000000000000000000000000000000000000000000000000000000000000000000000000000000000000000000000000000000000000000000000000000000000000000000000000000000000000000000000000000000000000000000
#0833a1:00000014
#083361:0000000000000054
#0843a1:24
#084321:0000000000000013
#085361:0023000000000000
#0853b1:0000132300000000
#085360:0000001323000000
#0863b0:0000000000000013
#087370:0023000000000000
#087320:0000132300000000
#087371:0000001323000000
#088321:1454545454545454545454542400000000000000000000000000000000000000
#088331:00540054005400540054005400540054005400540054005400000000000000000000000000000000000000000000000000000000000000000000000000000000
#088321:0000000000000000000000000000000000000000145454545454545424000000
#088331:00000000000000000000000000000000000000000000000000000000000000000000000000000000005400540054005400540054005400540000000000000000
#0883a0:0000000000000000000000000000000000000000000000000000000014545454
#088390:00000000000000000000000000000000000000000000000000000000000000000000000000000000000000000000000000000000000000000054005400540054
#0893a0:5454545424000000000000000000000000000000000000000000000000000000
#089390:00540054005400540000000000000000000000000000000000000000000000000000000000000000000000000000000000000000000000000000000000000000
#089380:0000000000000000000000000000000000000000000000001454545454545454
#089390:00000000000000000000000000000000000000000000000000000000000000000000000000000000000000000000000000540054005400540054005400540054
#090380:24
#089341:0000000000000000000000000000000000000000000000000000000014545454
#089331:00000000000000000000000000000000000000000000000000000000000000000000000000000000000000000000000000000000000000000054005400540054
#090341:24
#000960:0000000000130000
#000920:00000023
#0019b0:0000000000130000
#001970:00000023
#002970:0000000000130000
#0029b0:00000023
#054920:0000000000130000
#054960:00000023
#055970:0000000000130000
#0559b0:00000023
#0569b0:0000000000130000
#056970:00000023
