This file was generated by Ched 2.7.0.0.
#TITLE ""
#ARTIST ""
#DESIGNER ""
#DIFFICULTY 0
#PLAYLEVEL
#SONGID ""
#WAVE ""
#WAVEOFFSET 0
#JACKET ""
#REQUEST "ticks_per_beat 480"
#00002: 4
#BPM01: 172
#00008: 01
#TIL00: ""
#VOLUME: ""
#HISPEED 00
#MEASUREHS 00
#0121b:00131313
#01215:1300001300130013
#01118:0000130013000013
#01112:0013001300130000
#04818:0013000000000013
#04815:13130013
#0481b:0000001300130000
#04812:0013
#08218:0000230000131300
#08215:00002300000000000000001300000000
#08212:2300000013000013
#0821b:0000002300000000
#0041b:00130000
#00412:24001313
#00418:0000000000130013
#00410:41
#06415:0013001300130000
#06418:00130013
#0641b:2313
#02415:00000013
#02413:00130000
#02419:0000001300000000
#02414:0013
#0241a:0000000000130000
#0241b:0000000000000013
#02418:0013000000000000
#02412:13
#00314:0024002400001400
#00318:24242400
#00515:00001313
#00518:0000000000130000
#01018:0013001300000000
#01015:00131300
#01012:24
#0091b:0013000000000000
#00915:00130000
#00918:0000001300000000
#00912:0024
#0091a:00000024
#0131b:0013
#01318:00130013
#01315:0000001300000000
#02518:0000001300000000
#02515:00131300
#0361b:0013001300000000
#03612:13130000
#03615:00001313
#03618:0000000000130013
#0321b:13130013
#03215:00130000
#03218:0013
#03212:13001313
#0331b:13
#03312:0013000000000000
#03318:0000130013000013
#03315:0000001300001300
#0371b:0013000000000000
#03715:0000130000230023
#03718:0000001300002300
#03712:13
#0391b:13
#03912:0000001300000000
#03915:0013000000000000
#03918:00130000
#05818:0000001300000000
#05815:0000130000000013
#0581b:23
#07612:1300001300000000
#0761b:13000013
#07615:0013000000130013
#07618:00131300
#07610:41
#00115:1313
#00118:00000013
#00018:00001313
#00015:0000000000130000
#0001b:23
#00215:00001313
#00218:0000000000130000
#00212:13
#00612:00130000
#0061b:00001313
#00615:0000000000130013
#0061a:24
#00718:00001313
#00715:0000000000130000
#00818:0000001300000000
#0081b:0000000000130000
#00815:0013
#00812:0000000000000024
#01612:00131313
#01618:1300001300130013
#01515:0000130013000013
#0151b:0013001300130000
#01415:0013001300000000
#01418:00131300
#01410:41
#01712:0013
#01715:00130013
#01718:0000001300000000
#0181b:0000130000000013
#01812:2413
#01818:0000000000130000
#01815:00000013
#01915:0013
#01912:00000013
#01918:0000000000130000
#02012:0000130000000013
#0201b:0013
#02015:0000000000130000
#02018:00000013
#0201a:24
#02118:0013
#0211b:00000013
#02115:0000000000130000
#02317:0000000013000013
#02316:0013000000000000
#02319:00130000
#02314:0000001300000000
#02312:0000000000130000
#02214:00130000
#02219:0000001300000000
#02216:0013
#02217:0013000000000000
#02212:23
#02818:00000013
#0281a:00130000
#02814:0000001300000000
#02819:0013
#02813:0000000000130000
#02812:0000000000000013
#02815:0013000000000000
#0281b:13
#02915:00001313
#02918:0000001300130000
#02716:0000000013000013
#02717:0013000000000000
#02714:00130000
#02719:0000001300000000
#0271b:0000000000130000
#02619:00130000
#02614:0000001300000000
#02617:0013
#02616:0013000000000000
#0261b:23
#02610:41
#03018:00131300
#03015:0000001300000000
#03112:13
#0311b:0013000000000000
#03115:0000130013000013
#03118:0000001300001300
#03415:00000013
#0341b:00130000
#03412:13
#0351b:13
#03512:0013000000000000
#03518:0000130013000013
#03515:0000001300001300
#03812:0000130013000013
#03817:0000001300130000
#0381a:24
#03810:41
#0381b:00000053
#03819:00000000000000000000005300000000
#04012:13130000
#04018:0013000000000000
#0401b:00001313
#04015:0000000000130000
#04312:13
#0431b:0000001300000000
#04318:0013000000000000
#04315:00130000
#0421b:0000130013000013
#0421b:0000000000000013
#04216:0000001300130000
#04212:24000053
#04214:00000000000000000000005300000000
#04518:0014
#04514:0014
#0451a:00140000
#04512:14
#04912:14141400
#0491a:0014001400000000
#04918:0000000000000013
#05215:0013000000000013
#05218:13130013
#05212:0000001300130000
#0521b:0013
#05718:0024002400001400
#05714:24242400
#05518:1313
#05515:00000013
#05415:00001313
#05418:0000000000130000
#05412:23
#05410:41
#05618:00001313
#05615:0000000000130000
#0561b:13
#06015:0000001300000000
#06018:0000130000000013
#06012:23
#06118:00000000000000000000003313000000
#0611b:0013
#0611a:00000000000000000033000000000000
#06119:0000000000330000
#05915:00000000000000000000003313000000
#05912:00000000000000001300000000000033
#05913:00000000000000000033000000003300
#05914:00000000000000000000330000330000
#06212:00131300
#0621b:2300001300000013
#06213:00000000000000000053000000000000
#06214:0000000000530000
#06215:00000000000000000000005300000000
#06216:00000053
#06312:0000001300000013
#06318:00130000000000000000005300000000
#0631b:0013
#0631a:00000000000000000053000000000000
#06319:0000000000530000
#06317:00000053
#06912:0000000000000014
#0731a:14
#07312:00140015
#07319:0015
#07512:0013
#0751b:1313
#07515:0013001300000000
#07518:00130000
#0811a:0000002400001400
#08112:24000014
#08114:00240000
#08116:0024
#08118:0024000000000000
#07915:00000013
#07918:0000000026000013
#07912:24252600
#0791a:24
#07919:00250000
#08012:13
#08015:0013000013000013
#0801b:0000001300130000
#08018:00130013
#08312:0000002400001400
#0831a:24000014
#08318:00240000
#08316:0024
#08314:0024000000000000
#0841b:00130000
#08419:0013
#08416:0000001300000000
#08414:2400000000130000
#08417:00000013
#08412:0000000000000013
#08418:24
#08515:00130000000000000000000000000000
#08518:0000001300000000
#0851a:00000014
#08512:0014
#08516:0000000000140000
#08514:0000000000000014
#08612:00130000
#08614:0013
#08617:0000001300000000
#08619:0000000000130000
#08616:00000013
#0861b:0000000000000013
#08618:24
#08718:00130000000000000000000000001400
#08715:0000001300000000
#0871a:0014
#08716:0000000000140000
#08712:00000014
#08818:0000001400000024
#08814:2414
#08912:0014000000140000
#08918:00140000
#08914:0000001400000000
#0891a:00002414
#08916:0000000000000014
#09012:14
#07412:00260026000000001300000000001300
#07418:2626260000131300
#07415:00000000000000000000001300000000
#0741f:00210000
#0471b:13
#04712:0000001300000000
#04718:00131300
#04715:0013000000000000
#04612:0000000013000013
#0461b:0000000000130000
#04618:2424240000000000
#04614:00240024000000000000000000000000
#04617:00000053
#04619:00000000000000000000005300000000
#0501b:0000000013000013
#05015:0000001300000000
#05018:00130000
#05012:2400000000130000
#05016:00000053
#05014:00000000000000000000005300000000
#05112:13
#0511b:0000001300000000
#05115:00131300
#05118:0013000000000000
#0781b:0013
#07815:0000000000131300
#07818:00000000130000000000001300000000
#07812:0000001300000000
#07814:24
#07718:0014000000000013
#07714:0000001400000000
#0771a:24
#07716:00240000
#07712:0024
#0441b:13130000
#04415:0013000000000000
#04412:00001313
#04418:0000000000130000
#04112:13231300
#0411b:23132300
#04118:0000000000142400
#04114:0000000000241400
#0661f:11
#0531a:24242400
#05312:0024002400000000
#06518:0000000000230023
#06515:00000023
#00354:00000064
#00852:0000000000000014
#01058:0000000000000013
#0135b:0063
#01358:00000053
#0245b:0000000000000063
#03758:0000001300000000
#00452:14
#00458:0000000000000053
#0065a:14
#00655:0000000000000063
#01255:0000000000000063
#0145b:13
#01455:0000000000000013
#01752:0053
#01755:00000063
#01658:0000000000000053
#01852:14
#0185b:0000000000000063
#0205a:14
#02052:0000000000000053
#0225b:0000000000000013
#02555:0063
#02552:00000013
#02852:0000000000000053
#02652:0000000000000013
#02955:00000063
#03052:13
#03058:0053
#0345b:00630000
#0385a:14
#03958:00000013
#04252:14
#04355:00000013
#04552:54000014
#04558:0054
#04554:0064
#0455a:00640014
#05758:00000054
#06158:00000053
#0615b:0063
#05955:00000063
#05952:0053
#06058:0000000000000053
#06052:13
#05855:0000000000000063
#0585b:13
#0625b:1300000000000063
#06954:0014
#06958:0014
#07555:00000013
#07552:0053
#07558:00000013
#0755b:0063
#06358:00230000000000000000000000000000
#07952:14151600
#07958:0016
#0795a:14
#07959:00150000
#08352:00000054
#0835a:00000064
#08454:14
#08452:0000000000000053
#08458:14
#08555:00230000000000000000000000000000
#08658:14
#0865b:0000000000000063
#08758:00230000000000000000000000000000
#08854:14
#08858:0000000000000014
#04758:0053
#0475b:00000013
#04658:00140000
#07458:00160000
#05052:14
#05155:0063
#05152:00000013
#07854:14
#0645b:13
#0815a:00000014
#08152:00000014
#000320:0013002300000000
#001380:0013002300000000
#0023b0:0013002300000000
#003340:00000014
#004320:24
#004380:0000000000000013
#0053b0:00230000
#006350:0000000000000013
#007320:00230000
#008320:13230000
#010380:0000000000130023
#012350:0000000000000013
#013320:0023000000000000
#0133b0:0013
#013380:00000033
#0143b0:23
#014350:0000000000130023
#016380:0000000000000013
#0173b0:0023000000000000
#017320:0013
#017350:00000033
#018320:24
#0183b0:0000000000000013
#019380:00230000
#020320:0000000000000013
#021350:00230000
#0223b0:0000000000130023
#0243b0:0000000000000013
#025380:0023000000000000
#025350:0013
#025320:00000023
#026320:0000000000130023
#028320:0000000000000013
#029350:0023000000000000
#029350:00000013
#030320:23
#030380:0013
#0303b0:00000023
#0343b0:00130000
#034380:0023
#039380:00001323
#043350:00001323
#045320:14000024
#045340:00343400
#0453a1:14340024
#045381:0034
#047381:0013
#0473b1:00000023
#051351:0013
#051321:00000023
#0543b1:0013002300000000
#055351:0013002300000000
#056321:0013002300000000
#057381:00000014
#0583b1:23
#058351:0000000013333333
#058341:00000000000000000033003300330000
#059321:00003300330033003300000000000033
#059331:00000033003300330033000000003300
#059341:00000000000000000000330000330000
#059351:00000000000000000000003333000000
#060321:23
#060381:0000000013333333
#060391:00000000000000000033003300330000
#0613b1:0033333333000000
#0613a1:00000033003300330033000000000000
#061391:0000000000330000
#061381:00000000000000000000003333000000
#0623b1:23
#0623b1:0000000000000013
#063381:00530000000000000000000000000000
#0633b1:00230000
#064321:00000000000000000000000000001353
#064331:0000000000000000000000000000000000000000000000000000000000530053
#065321:53535353535353532300000000000000
#065331:0053005300530053005300530053005300000000000000000000000000000000
#066321:14
#066341:00340034
#066361:0034
#067321:24
#0673a0:14
#067380:00340034
#067360:0034
#0683a0:24
#068321:14
#068331:00340000
#068341:0024
#0683a0:0014
#068390:00000034
#069380:24
#069341:14342400
#069380:00142400
#0703a0:1434
#070380:00340034
#0713a0:24
#071321:1434
#071341:00340034
#072321:24
#0723a0:1424
#072380:00340000
#072321:0014
#072341:00000034
#073321:24
#075321:0013
#075351:00000023
#0753b0:0013
#075380:00000023
#083320:00000014
#084340:24
#0833a1:00000014
#084381:24
#084321:0000000000000013
#085351:00530000000000000000000000000000
#085321:00230000
#0863b1:0000000000000013
#087381:00530000000000000000000000000000
#0873b1:00230000
#088381:00000000000000000000145454542400
#088371:0000000000000000000000000000000000000000005400540054005400000000
#038970:0000000000130000
#0389b0:000000000000000000000000000000000000000000000000000000000000000000000000000000000000000000000000000000000000000000000000000000000000000000000000000000000000000000000000000000000000000000000000000000000000000000000000000000000000000000000000000000000000000000000000000000000000000000000000000000000000000000000000000000000000000000000000000000000000000000000000000000000000000000000000000000000000000000000000000000000000000000000000000000000000000000000000000000000000000000000000000000000000000000000000000000000000000000000000000000000000000000000000000000000000000000000000000000000000000000000000000000000000000000000000000000000000000000000000000000000000000000000000000000000000000000000000000000000000000000000000000000000000000000000000000000000000000000000000000000000000000000000000000000000000000000000000000000000000000000000000000000000000000000000000000000000000000000000000000000000000000000000000000000000000000000000000000000000000000000000000000000000000000000000000000000000000000000000000000000000000000000000000000000000000000000000000000000000000000000000000000000000000000000000000000000000000000000000000000000000000000000000000000000000000000000000000000000000000000000000000000000000000000000000000000000000000000000000000000000000000000000000000000000000000000000000000000000000000000000000000000000000000000000000000000000000000000000000000000000000000000000000000000000000000000000000000000000000000000000000000000000000000000000000000000000000000000000000000000000000000000000000000000000000000000000000000000000000000000000000000000000000000000000000000000000000000000000000000000000000000000000000000000000000000000000000000000000000000000000000000000000000000000000000000000000000000000000000000000000000000000000000000000000000000000000000000000000000000000000000000000000000000000000000000000000000000000000000000000000000000000000000000000000000000000000000000000000000000000000000000000000000000000000000000000000000000000000000000000000000000000000000000000000000000000000000000000000000000000000000000000000000000000000000000000000000000000000000000000000000000000000000000000000000000000000000000000000000000000000000000000000000000000000000000000000000000000000000000000000000000000000000000000000000000000000000000000000000000000000000000000000000000000000000000000000000000000000000000000000000000000000000000000000000000000000000000000000000000000000000000000000000000000000000000000000000000000000000000000000000000000000000000000000000000000000000000000000000000000000000000000000000000000000000000000000000000000000000000000000000000000000000000000000000000000000000000000000000000000000000000000000000000000000000000000000000000000000000000000000000000000000000000000000000000000000000000000000000000000000000000000000000000000000000000000000000000000000000000000000000000000000000000000000000000000000000000000000000000000000000053230000000000000000000000000000000000000000000000000000000000000000000000000000000000000000000000000000000000000000000000000000000000000000000000000000000000000000000000000000000000000000000000000000000000000000000000000000000000000000000000000000000000000000000000000000000000000000000000000000000000000000000000000000000000000000000000000000000000000000000000000000000000000000000000000000000000000000000000000000000000000000000000000000000000000000000000000000000000000000000000000000000000000000000000000000000000000000000000000000000000000000000000000000000000000000000000000000000000000000000000000000000000000000000000000000000000000000000000000000000000000000000000000000000000000000000000000000000000000000000000000000000000000000000000000000000000000000000000000000000000000000000000000000000000000000000000000000000000000000000000000000000000000000000000000000000000000000000000000000000000000000000000000000000000000000000000000000000000000000000000
#042960:0000000000130000
#042920:000000000000000000000000000000000000000000000000000000000000000000000000000000000000000000000000000000000000000000000000000000000000000000000000000000000000000000000000000000000000000000000000000000000000000000000000000000000000000000000000000000000000000000000000000000000000000000000000000000000000000000000000000000000000000000000000000000000000000000000000000000000000000000000000000000000000000000000000000000000000000000000000000000000000000000000000000000000000000000000000000000000000000000000000000000000000000000000000000000000000000000000000000000000000000000000000000000000000000000000000000000000000000000000000000000000000000000000000000000000000000000000000000000000000000000000000000000000000000000000000000000000000000000000000000000000000000000000000000000000000000000000000000000000000000000000000000000000000000000000000000000000000000000000000000000000000000000000000000000000000000000000000000000000000000000000000000000000000000000000000000000000000000000000000000000000000000000000000000000000000000000000000000000000000000000000000000000000000000000000000000000000000000000000000000000000000000000000000000000000000000000000000000000000000000000000000000000000000000000000000000000000000000000000000000000000000000000000000000000000000000000000000000000000000000000000000000000000000000000000000000000000000000000000000000000000000000000000000000000000000000000000000000000000000000000000000000000000000000000000000000000000000000000000000000000000000000000000000000000000000000000000000000000000000000000000000000000000000000000000000000000000000000000000000000000000000000000000000000000000000000000000000000000000000000000000000000000000000000000000000000000000000000000000000000000000000000000000000000000000000000000000000000000000000000000000000000000000000000000000000000000000000000000000000000000000000000000000000000000000000000000000000000000000000000000000000000000000000000000000000000000000000000000000000000000000000000000000000000000000000000000000000000000000000000000000000000000000000000000000000000000000000000000000000000000000000000000000000000000000000000000000000000000000000000000000000000000000000000000000000000000000000000000000000000000000000000000000000000000000000000000000000000000000000000000000000000000000000000000000000000000000000000000000000000000000000000000000000000000000000000000000000000000000000000000000000000000000000000000000000000000000000000000000000000000000000000000000000000000000000000000000000000000000000000000000000000000000000000000000000000000000000000000000000000000000000000000000000000000000000000000000000000000000000000000000000000000000000000000000000000000000000000000000000000000000000000000000000000000000000000000000000000000000000000000000000000000000000000000000000000000000000000000000000000000000000000000000000000000000000000000000000000000000000000000000000000000000000000000000053230000000000000000000000000000000000000000000000000000000000000000000000000000000000000000000000000000000000000000000000000000000000000000000000000000000000000000000000000000000000000000000000000000000000000000000000000000000000000000000000000000000000000000000000000000000000000000000000000000000000000000000000000000000000000000000000000000000000000000000000000000000000000000000000000000000000000000000000000000000000000000000000000000000000000000000000000000000000000000000000000000000000000000000000000000000000000000000000000000000000000000000000000000000000000000000000000000000000000000000000000000000000000000000000000000000000000000000000000000000000000000000000000000000000000000000000000000000000000000000000000000000000000000000000000000000000000000000000000000000000000000000000000000000000000000000000000000000000000000000000000000000000000000000000000000000000000000000000000000000000000000000000000000000000000000000000000000000000000000000000
#0469b0:0000000000130000
#046970:000000000000000000000000000000000000000000000000000000000000000000000000000000000000000000000000000000000000000000000000000000000000000000000000000000000000000000000000000000000000000000000000000000000000000000000000000000000000000000000000000000000000000000000000000000000000000000000000000000000000000000000000000000000000000000000000000000000000000000000000000000000000000000000000000000000000000000000000000000000000000000000000000000000000000000000000000000000000000000000000000000000000000000000000000000000000000000000000000000000000000000000000000000000000000000000000000000000000000000000000000000000000000000000000000000000000000000000000000000000000000000000000000000000000000000000000000000000000000000000000000000000000000000000000000000000000000000000000000000000000000000000000000000000000000000000000000000000000000000000000000000000000000000000000000000000000000000000000000000000000000000000000000000000000000000000000000000000000000000000000000000000000000000000000000000000000000000000000000000000000000000000000000000000000000000000000000000000000000000000000000000000000000000000000000000000000000000000000000000000000000000000000000000000000000000000000000000000000000000000000000000000000000000000000000000000000000000000000000000000000000000000000000000000000000000000000000000000000000000000000000000000000000000000000000000000000000000000000000000000000000000000000000000000000000000000000000000000000000000000000000000000000000000000000000000000000000000000000000000000000000000000000000000000000000000000000000000000000000000000000000000000000000000000000000000000000000000000000000000000000000000000000000000000000000000000000000000000000000000000000000000000000000000000000000000000000000000000000000000000000000000000000000000000000000000000000000000000000000000000000000000000000000000000000000000000000000000000000000000000000000000000000000000000000000000000000000000000000000000000000000000000000000000000000000000000000000000000000000000000000000000000000000000000000000000000000000000000000000000000000000000000000000000000000000000000000000000000000000000000000000000000000000000000000000000000000000000000000000000000000000000000000000000000000000000000000000000000000000000000000000000000000000000000000000000000000000000000000000000000000000000000000000000000000000000000000000000000000000000000000000000000000000000000000000000000000000000000000000000000000000000000000000000000000000000000000000000000000000000000000000000000000000000000000000000000000000000000000000000000000000000000000000000000000000000000000000000000000000000000000000000000000000000000000000000000000000000000000000000000000000000000000000000000000000000000000000000000000000000000000000000000000000000000000000000000000000000000000000000000000000000000000000000000000000000000000000000000000000000000000000000000000000000000000000000000000000000000000000000000053230000000000000000000000000000000000000000000000000000000000000000000000000000000000000000000000000000000000000000000000000000000000000000000000000000000000000000000000000000000000000000000000000000000000000000000000000000000000000000000000000000000000000000000000000000000000000000000000000000000000000000000000000000000000000000000000000000000000000000000000000000000000000000000000000000000000000000000000000000000000000000000000000000000000000000000000000000000000000000000000000000000000000000000000000000000000000000000000000000000000000000000000000000000000000000000000000000000000000000000000000000000000000000000000000000000000000000000000000000000000000000000000000000000000000000000000000000000000000000000000000000000000000000000000000000000000000000000000000000000000000000000000000000000000000000000000000000000000000000000000000000000000000000000000000000000000000000000000000000000000000000000000000000000000000000000000000000000000000000000000
#050920:0000000000130000
#050960:000000000000000000000000000000000000000000000000000000000000000000000000000000000000000000000000000000000000000000000000000000000000000000000000000000000000000000000000000000000000000000000000000000000000000000000000000000000000000000000000000000000000000000000000000000000000000000000000000000000000000000000000000000000000000000000000000000000000000000000000000000000000000000000000000000000000000000000000000000000000000000000000000000000000000000000000000000000000000000000000000000000000000000000000000000000000000000000000000000000000000000000000000000000000000000000000000000000000000000000000000000000000000000000000000000000000000000000000000000000000000000000000000000000000000000000000000000000000000000000000000000000000000000000000000000000000000000000000000000000000000000000000000000000000000000000000000000000000000000000000000000000000000000000000000000000000000000000000000000000000000000000000000000000000000000000000000000000000000000000000000000000000000000000000000000000000000000000000000000000000000000000000000000000000000000000000000000000000000000000000000000000000000000000000000000000000000000000000000000000000000000000000000000000000000000000000000000000000000000000000000000000000000000000000000000000000000000000000000000000000000000000000000000000000000000000000000000000000000000000000000000000000000000000000000000000000000000000000000000000000000000000000000000000000000000000000000000000000000000000000000000000000000000000000000000000000000000000000000000000000000000000000000000000000000000000000000000000000000000000000000000000000000000000000000000000000000000000000000000000000000000000000000000000000000000000000000000000000000000000000000000000000000000000000000000000000000000000000000000000000000000000000000000000000000000000000000000000000000000000000000000000000000000000000000000000000000000000000000000000000000000000000000000000000000000000000000000000000000000000000000000000000000000000000000000000000000000000000000000000000000000000000000000000000000000000000000000000000000000000000000000000000000000000000000000000000000000000000000000000000000000000000000000000000000000000000000000000000000000000000000000000000000000000000000000000000000000000000000000000000000000000000000000000000000000000000000000000000000000000000000000000000000000000000000000000000000000000000000000000000000000000000000000000000000000000000000000000000000000000000000000000000000000000000000000000000000000000000000000000000000000000000000000000000000000000000000000000000000000000000000000000000000000000000000000000000000000000000000000000000000000000000000000000000000000000000000000000000000000000000000000000000000000000000000000000000000000000000000000000000000000000000000000000000000000000000000000000000000000000000000000000000000000000000000000000000000000000000000000000000000000000000000000000000000000000000000000000000000000000053230000000000000000000000000000000000000000000000000000000000000000000000000000000000000000000000000000000000000000000000000000000000000000000000000000000000000000000000000000000000000000000000000000000000000000000000000000000000000000000000000000000000000000000000000000000000000000000000000000000000000000000000000000000000000000000000000000000000000000000000000000000000000000000000000000000000000000000000000000000000000000000000000000000000000000000000000000000000000000000000000000000000000000000000000000000000000000000000000000000000000000000000000000000000000000000000000000000000000000000000000000000000000000000000000000000000000000000000000000000000000000000000000000000000000000000000000000000000000000000000000000000000000000000000000000000000000000000000000000000000000000000000000000000000000000000000000000000000000000000000000000000000000000000000000000000000000000000000000000000000000000000000000000000000000000000000000000000000000000000000
#062920:0013
#062960:000000000000000000000000000000000000000000000000000000000000000000000000000000000000000000000000000000000000000000000000000000000000000000000000000000000000000000000000000000000000000000000000000000000000000000000000000000000000000000000000000000000000000000000000000000000000000000000000000000000000000000000000000000000000000000000000000000000000000000000000000000000000000000000000000000000000000000000000000000000000000000000000000000000000000000000000000000000000000000000000000000000000000000000000000000000000000000000000000000000000000000000000000000000000000000000000000000000000000000000000000000000000000000000000000000000000000000000000000000000000000000000000000000000000000000000000000000000000000000000000000000000000000000000000000000000000000000000000000000000000000000000000000000000000000000000000000000000000000000000000000000000000000000000000000000000000000000000000000000000000000000000000000000000000000000000000000000000000000000000000000000000000000000000000000000000000000000000000000000000000000000000000000000000000000000000000000000000000000000000000000000000000000000000000000000000000000000000000000000000000000000000000000000000000000000000000000000000000000000000000000000000000000000000000000000000000000000000000000000000000000000000000000000000000000000000000000000000000000000000000000000000000000000000000000000000000000000000000000000000000000000000000000000000000000000000000000000000000000000000000000000000000000000000000000000000000000000000000000000000000000000000000000000000000000000000000000000000000000000000000000000000000000000000000000000000000000000000000000000000000000000000000000000000000000000000000000000000000000000000000000000000000000000000000000000000000000000000000000000000000000000000000000000000000000000000000000000000000000000000000000000000000000000000000000000000000000000000000000000000000000000000000000000000000000000000000000000000000000000000000000000000000000000000000000000000000000000000000000000000000000000000000000000000000000000000000000000000000000000000000000000000000000000000000000000000000000000000000000000000000000000000000000000000000000000000000000000000000000000000000000000000000000000000000000000000000000000000000000000000000000000000000000000000000000000000000000000000000000000000000000000000000000000000000000000000000000000000000000000000000000000000000000000000000000000000000000000000000000000000000000000000000000000000000000000000000000000000000000000000000000000000000000000000000000000000000000000000000000000000000000000000000000000000000000000000000000000000000000000000000000000000000000000000000000000000000000000000000000000000000000000000000000000000000000000000000000000000000000000000000000000000000000000000000000000000000000000000000000000000000000000000000000000000000000000000000000000000000000000000000000000000000000000000000000000000000000000000000000000000053230000000000000000000000000000000000000000000000000000000000000000000000000000000000000000000000000000000000000000000000000000000000000000000000000000000000000000000000000000000000000000000000000000000000000000000000000000000000000000000000000000000000000000000000000000000000000000000000000000000000000000000000000000000000000000000000000000000000000000000000000000000000000000000000000000000000000000000000000000000000000000000000000000000000000000000000000000000000000000000000000000000000000000000000000000000000000000000000000000000000000000000000000000000000000000000000000000000000000000000000000000000000000000000000000000000000000000000000000000000000000000000000000000000000000000000000000000000000000000000000000000000000000000000000000000000000000000000000000000000000000000000000000000000000000000000000000000000000000000000000000000000000000000000000000000000000000000000000000000000000000000000000000000000000000000000000000000000000000000000000
#0639b0:0013
#063970:000000000000000000000000000000000000000000000000000000000000000000000000000000000000000000000000000000000000000000000000000000000000000000000000000000000000000000000000000000000000000000000000000000000000000000000000000000000000000000000000000000000000000000000000000000000000000000000000000000000000000000000000000000000000000000000000000000000000000000000000000000000000000000000000000000000000000000000000000000000000000000000000000000000000000000000000000000000000000000000000000000000000000000000000000000000000000000000000000000000000000000000000000000000000000000000000000000000000000000000000000000000000000000000000000000000000000000000000000000000000000000000000000000000000000000000000000000000000000000000000000000000000000000000000000000000000000000000000000000000000000000000000000000000000000000000000000000000000000000000000000000000000000000000000000000000000000000000000000000000000000000000000000000000000000000000000000000000000000000000000000000000000000000000000000000000000000000000000000000000000000000000000000000000000000000000000000000000000000000000000000000000000000000000000000000000000000000000000000000000000000000000000000000000000000000000000000000000000000000000000000000000000000000000000000000000000000000000000000000000000000000000000000000000000000000000000000000000000000000000000000000000000000000000000000000000000000000000000000000000000000000000000000000000000000000000000000000000000000000000000000000000000000000000000000000000000000000000000000000000000000000000000000000000000000000000000000000000000000000000000000000000000000000000000000000000000000000000000000000000000000000000000000000000000000000000000000000000000000000000000000000000000000000000000000000000000000000000000000000000000000000000000000000000000000000000000000000000000000000000000000000000000000000000000000000000000000000000000000000000000000000000000000000000000000000000000000000000000000000000000000000000000000000000000000000000000000000000000000000000000000000000000000000000000000000000000000000000000000000000000000000000000000000000000000000000000000000000000000000000000000000000000000000000000000000000000000000000000000000000000000000000000000000000000000000000000000000000000000000000000000000000000000000000000000000000000000000000000000000000000000000000000000000000000000000000000000000000000000000000000000000000000000000000000000000000000000000000000000000000000000000000000000000000000000000000000000000000000000000000000000000000000000000000000000000000000000000000000000000000000000000000000000000000000000000000000000000000000000000000000000000000000000000000000000000000000000000000000000000000000000000000000000000000000000000000000000000000000000000000000000000000000000000000000000000000000000000000000000000000000000000000000000000000000000000000000000000000000000000000000000000000000000000000000000000000000000000000000000000000053230000000000000000000000000000000000000000000000000000000000000000000000000000000000000000000000000000000000000000000000000000000000000000000000000000000000000000000000000000000000000000000000000000000000000000000000000000000000000000000000000000000000000000000000000000000000000000000000000000000000000000000000000000000000000000000000000000000000000000000000000000000000000000000000000000000000000000000000000000000000000000000000000000000000000000000000000000000000000000000000000000000000000000000000000000000000000000000000000000000000000000000000000000000000000000000000000000000000000000000000000000000000000000000000000000000000000000000000000000000000000000000000000000000000000000000000000000000000000000000000000000000000000000000000000000000000000000000000000000000000000000000000000000000000000000000000000000000000000000000000000000000000000000000000000000000000000000000000000000000000000000000000000000000000000000000000000000000000000000000000
