This file was generated by Ched 2.7.0.0.
#TITLE ""
#ARTIST ""
#DESIGNER ""
#DIFFICULTY 0
#PLAYLEVEL
#SONGID ""
#WAVE ""
#WAVEOFFSET 0
#JACKET ""
#REQUEST "ticks_per_beat 480"
#00002: 4
#BPM01: 172
#00008: 01
#TIL00: ""
#VOLUME: ""
#HISPEED 00
#MEASUREHS 00
#03814:00140000
#03818:0014
#03812:00000014
#0381a:24
#03810:41
#04912:14
#0491a:0014
#04916:00140000
#07319:15
#07312:00150016
#07318:0016
#0751a:0014
#07512:14
#07516:00140000
#07718:00141400
#07714:0000001400000000
#07712:14
#00018:2414
#00014:00140014
#00214:1414
#00218:00140014
#00412:00140014
#0041a:2414
#00410:41
#00518:1414
#00514:00140000
#0061a:00140014
#00612:2414
#00714:1414
#00718:00140000
#01012:1414
#01018:00140000
#0111a:1414
#01114:00140000
#01212:14
#01218:00140000
#01214:0014
#0121a:00000014
#01314:14
#01318:00140000
#0141a:1414
#01414:00140000
#01410:41
#01512:1414
#01518:00140000
#0161a:14
#01614:00140000
#01618:0014
#01612:00000014
#01718:14000014
#01714:00140000
#0171a:0014
#01814:00140014
#0181a:2414
#01918:1414
#01912:00140000
#02018:00140014
#02012:2414
#02114:1414
#0211a:00140000
#02218:14
#02212:00140000
#0221a:0014
#02214:00000014
#0231a:14
#02312:00140000
#02318:0014
#02412:14
#0241a:00140000
#02414:0014
#02418:00000014
#02512:14
#0251a:00140000
#02514:0014
#02518:00000014
#02614:14
#0261a:00140000
#02612:0014
#02618:00000014
#02610:41
#02712:14
#0271a:00140000
#02714:0014
#0281a:14
#02812:00140000
#02818:0014
#02814:00000014
#0291a:14
#02912:00140000
#02918:0014
#02914:00000014
#03314:1414
#03318:00140014
#0361a:14
#03612:00140000
#03619:0014
#03613:00000014
#03718:14
#03714:00140000
#0391a:14000014
#03916:00140000
#03912:0014
#04113:14141400
#04119:14141400
#04218:00140000
#04214:0014
#0421a:00000014
#04212:24
#04312:14000014
#04316:00140000
#0431a:0014
#04518:1415
#04514:00140000
#04513:00000015
#0461a:0014
#04612:00260014
#04618:26
#0471a:14000014
#04716:00140000
#04712:0014
#04814:14
#04818:00140000
#04812:0014
#0481a:00000014
#05012:0014
#0501a:00000014
#05018:00140000
#05014:24
#05112:14000014
#05116:00140000
#0511a:0014
#05218:14
#05214:00140000
#0521a:0014
#05212:00000014
#05418:2414
#05414:00140014
#05410:41
#05614:1414
#05618:00140014
#0661a:0014
#0661f:11
#06714:14
#06718:0014
#06812:14
#0681a:0014
#06914:1414
#06918:00140000
#0701a:14
#07012:0014
#07118:14
#07114:0014
#0721a:1414
#07212:00140014
#07414:0014
#07418:26260014
#07412:0026000000000000
#0741f:00210000
#07614:14
#0761a:00140000
#07613:0014
#07619:00000014
#07610:41
#07912:14241500
#0791a:24140000
#07919:0025
#0781a:00140000
#07814:0014
#07818:00000014
#07812:24
#08018:14
#08012:00140000
#08019:0014
#08013:00000014
#0811a:14
#08114:00140000
#08118:0000001400000000
#0821a:14140000
#08212:00001414
#08313:14241400
#08319:24142400
#08412:00140000
#08418:0014
#08414:00000014
#0841a:24
#0851a:14
#08512:00140000
#08518:0014
#08912:00140000
#0891a:0014
#08914:00000014
#08918:0000000000000014
#09014:14
#0861a:00140000
#08614:0014
#08618:00000014
#08612:24
#08712:14
#0871a:00140000
#08714:0014
#04012:14
#0401a:0014
#0441a:14
#04412:0014
#05518:14
#06114:0014
#06318:0014
#06415:0000000000000014
#00312:2626
#00318:00260000
#00914:0024
#00918:00000024
#0531a:24
#05312:0024
#05316:00240000
#05712:2626
#05718:00260000
#0045a:14
#0385a:14
#07558:00000014
#0755a:0064
#04652:00160000
#07458:00160000
#05054:14
#07852:14
#00652:14
#0085a:0000000000000014
#0185a:14
#0175a:0064
#01758:00000054
#02052:14
#03158:00000014
#03554:00000014
#04252:14
#06152:00000014
#06154:0064
#05959:00000014
#06652:14
#08154:00000014
#0845a:14
#0885a:0000000000000014
#08652:14
#0635a:00000014
#06358:0054
#04052:54
#0405a:0064
#0445a:64
#04452:0054
#05558:54
#06455:0000000000000064
#001380:1424
#0083a0:1400000000000024
#013320:00001424
#0173a0:0014
#017380:00000034
#0183a0:24
#0303a0:14000034
#030380:00343400
#0313a0:3434
#031380:00340024
#032320:14
#032340:00240000
#0323a0:0014
#032380:00000024
#034320:14000034
#034340:00343400
#035320:3434
#035340:00340024
#040320:14
#040340:00240000
#0403a0:0014
#040380:00000024
#0443a0:14
#044380:00240000
#044320:0014
#044340:00000024
#055380:14
#0553a0:0024
#0583a0:14
#058390:00340000
#058380:0034
#058370:00000034
#059390:34000024
#059380:00340000
#0593a0:0034
#060340:14
#060330:00340034
#060320:0034
#061340:34343400
#061320:00000024
#062380:14
#062390:00340034
#0623a0:0034
#063380:34343400
#0633a0:00000024
#064320:14
#064330:00340000
#064340:0034
#064350:0000000000003434
#066320:24
#0753a0:0014
#075380:00000024
#081340:00001424
#0883a0:1400000000000024
