This file was generated by Ched 2.7.0.0.
#TITLE ""
#ARTIST ""
#DESIGNER ""
#DIFFICULTY 0
#PLAYLEVEL
#SONGID ""
#WAVE ""
#WAVEOFFSET 0
#JACKET ""
#REQUEST "ticks_per_beat 480"
#00002: 4
#BPM01: 124
#00008: 01
#TIL00: ""
#VOLUME: ""
#HISPEED 00
#MEASUREHS 00
#00112:130000000000000000000000130000000013000000000000
#00115:0013001300000013
#00118:000000000013
#0011b:130000000000000000000000000000000000000000000013
#0011a:0014
#00216:000000001400001400000000
#00215:000000130000000000000000000000000000000013000000
#00218:000013000000000000000000000000000000000000130000
#00212:13
#0021b:000000000013000000000000000000000013000000000000
#00214:000000000000000000000014000000000000000000000000
#00412:000000000013000000000000000000000014000000000000
#00415:001300000000001400001400
#0041b:13
#00418:000000130000000000000014000000000000000000000000
#00416:001400
#0041a:0000000000240024
#00417:00000024
#00515:26131300
#00518:000000000000130000000013000000000000000000000000
#0051b:0013000000130000
#00512:0013001300240000
#00516:00000024
#0051a:0000000000000024
#00510:41
#00813:000000000014000000000000000000000000000000000000
#00814:000000000000000000000013000000000013000000000000
#00812:000000000000001300000000
#00816:000013000013
#00815:001300000000000000000000
#0081a:0023000000000000
#0081b:0000002300000023
#00819:00002323
#00817:0000000000230000
#0111b:0013001300130000
#01118:00131300
#01115:0013001300130000
#01112:000000130000130000001400
#0111a:000000000014
#01116:24
#01215:000013000013000000000000000000000000000013000000
#01218:0013131414152513
#01214:000000000000000014000014000000000000000000000000
#01213:000000000000000000000000000015000025000000000000
#01312:000000000000230000000013000000000000000000000000
#01315:0000000000140000
#01314:00000014
#01313:0000000000000014
#01316:0014
#0131a:00140000
#01310:41
#01416:0014000000140013
#01418:00140014
#0141a:0000001400000014
#01412:0000000000130000
#01414:00000013
#01516:0014001300140000
#01518:0000140000000013
#0151a:0000001400000000
#01514:00130000
#01515:00000013
#01616:0014001300140000
#01618:0000140000000014
#01614:14130014
#0161a:0000001400000000
#01612:0013000000000000
#0161b:13
#02015:00000013
#02018:0024000000000013
#02012:0000000000130000
#02019:00240000
#0201a:0000002400000000
#02118:0013000000000000
#02115:00130000
#02112:2600001300000014
#02114:00000014
#02117:0000001300000000
#0211b:2300000000130000
#02116:0000000000140000
#02110:41
#02312:0013000000000000
#02314:00130000
#02316:0000001300242424
#0231a:1400001400000000
#02318:00140000
#0231b:0000000000230000
#02412:1400002400131313
#02419:00230000
#0241b:0023000000000000
#02417:0000002300000000
#02414:00240000
#0251b:0013131300000000
#02516:0000000000000024
#02512:0000000000242424
#02619:00000013
#02617:0000000000000013
#02614:00000014
#02612:0000000000000014
#0261a:0024242400000000
#02616:0000000000240000
#0261b:0000000000230000
#02712:1414141400000000
#02717:000013000013000013000013000000130000000000130000
#02714:000000000000000000000000000000000000000000000013
#0281a:1414141400140014
#02816:000013000013000013000013000000000000000000000000
#02817:00000014
#02815:0000000000240024
#02812:00000024
#02912:24130000
#02918:00130000
#02915:000000000000000000000000000000000000153500000000
#02917:24
#0291a:0000000024240000
#03015:000000000013000000000000000000000000130000000000
#03012:0000001300140000
#0301b:0000001300000000
#03018:0000130000000013
#0301a:14
#03013:0000000000000014
#03019:00000014
#03113:000000000000000000000013000000000000000000000000
#03118:0000000013000013
#03114:000000000000001300000000
#03119:0000000000130000
#03115:000000000000000000000000000000000013000000000000
#03117:00130000
#0311a:24
#03116:23
#03110:41
#03212:13001414
#0321b:13
#03215:000000130000000013000000000000130000000000000000
#03218:000000000013000000130000000000000000000000130000
#0321a:00001414
#0371a:2414
#0371b:00130000
#03712:24141300
#03715:0000001300000000
#03718:0013000000130000
#03716:00000013
#03717:0000000000000014
#04316:0013000000230000
#04314:00130023
#04312:0000001300000023
#0431b:0000000000230063
#04418:00000013
#04415:0000000000000013
#0441b:0000002300130000
#04417:0023000000000000
#04419:00230000
#05516:00000000140000000000000000000014
#05512:00000000000000000000000000000000130000000000000000000000000000000053000000000000005300000000000000000000000000000000000000000000
#05514:0000000013130000
#0551a:24000024
#05515:24
#0031b:130000000000000000000000130000000013000000000000
#00318:0013001300000013
#00312:130000000000000000000000140000000000000000000013
#00315:000000000013
#00615:130000000000130000000013000000000000000000000000
#00618:00131300
#00612:0013000000130024
#0061b:0013001300000000
#0061a:0000000000240000
#00616:00000024
#00715:00131300
#00718:130000000000130000000013000000000053000000000000
#0071b:0013000000130000
#00712:000000130000000000130000000000130000000000000014
#00714:000000000013
#00719:0000000000000023
#00915:13131300
#00918:000000000000130000000013000000240000000000000000
#00914:0000000000140000
#00913:00000014
#00912:0013001300000014
#0091b:0013000000000000
#00919:00000024
#0091a:0000000000000024
#01018:13131300
#01015:000000000000130000000013000000000000000000000000
#01012:0013000000230000
#0101b:000000130000000000130000000000230000000000000023
#01019:000000000023
#01016:000000000000000000000000000000000033000000230000
#0171a:14
#0171b:000000000000230000000013000000000000000000000000
#01717:0000000000140000
#01718:00000014
#01719:0000000000000014
#01716:0014
#01712:14140000
#01816:0024000000140000
#01814:00240014
#0181b:0000000000130000
#01819:00000013
#01812:0000002400000014
#01817:0000000000000013
#0181a:24
#01916:0014000000000024
#0191b:0000000000000013
#01914:00140014
#01912:0000001400140000
#01919:00130013
#01917:0000001300130000
#01915:0013
#02216:0014000000141414
#0221b:0013000000000000
#02219:00130000
#02217:0000001300000000
#02212:0000000000130000
#03313:000000000000000000000013000000000000000000000000
#03318:0013
#03314:000000000000001300000000
#03319:0000000000130000
#0331b:0000000000000013
#0331a:24240000
#03312:24
#0341b:0013001300000000
#03418:00000013
#03415:1300130000000013
#03416:0000000000130000
#03413:00000024
#03419:0000000000000024
#0341a:0000000000240000
#0351a:000000000000000000000013000000000000000000000000
#03515:0000000013000013
#03519:000000000000001300000000
#03514:0000000000130000
#03518:000000000000000000000000000000000013000000000000
#03516:00130000
#03512:24
#03517:23
#0361b:13
#03612:1314
#03618:000000130000000013000000000000000000000000000000
#03615:000000000013000000130000000000000000000000130000
#0361a:0014
#04017:00000012
#04014:00120000
#04012:00000052
#04019:00520000
#0391a:00000012
#03917:00120000
#0391f:11
#03915:00000052
#0391c:00520000
#04217:0000120000130000
#04219:00000013
#0421c:00520000
#04212:0000000000000053
#0411a:00000012
#04114:00120000
#04115:00000052
#04119:00520000
#04515:000053530053530000000000130000000000000000130000
#04512:130000000000000000000000000000000000000000000053
#0451b:000000000000130000000000000000000000000000000053
#04518:130000000000000053530053530000130000000000530000
#04614:00000016
#04616:0000000000000016
#04612:53000000000000000000000000530000530000000000000000000000000000000000000000000000160000000000000000000000000000000000000000000000
#04615:000053530000000000260000000000000000000000000000
#0461b:53000000000000000000000000530000530000000000000000000000000000000000000000000000000000000000000000000000000000000000000000000000
#04618:000053530000000000000000000000000000000000000000
#04715:0013000000000000
#04718:26130014
#0471a:0000000000000014
#0471b:0000001300000000
#04716:0000001300140000
#04712:2300000000130000
#0471f:21
#04710:00410000
#0481a:0000000000140000
#04818:00000014
#04816:0014001300130014
#04812:0013000000000013
#04814:00130013
#04916:0014141400000024
#04912:0000130000240000
#0491b:0000001300000013
#04919:00000013
#04917:0000000000130000
#04914:00000024
#05012:0000001300131313
#0501b:00130000
#05016:0024242400000000
#0511a:0014141400000000
#05116:1314
#05119:0000000000000025
#05112:0000000000252525
#0531a:1414141400000000
#05316:000013000013000013000013000000130000000000130000
#05319:000000000000000000000000000000000000000000000013
#05412:1414141400140014
#05417:000013000013000013000013000000240000000000240000
#05415:00000014
#0541a:00000024
#05216:1500000000240013
#05218:0026262600001400
#0521a:0000000000000014
#05214:00000013
#05212:0000000000230000
#05716:00150000
#05712:240000000000000000000000000000000013000000000000
#05718:000000000013
#05715:0000000000000013
#0571b:000000000000000000000000000000000000000000000013
#0571a:0014
#05812:131400
#05815:000000130000000000000000000000000000000013000000
#05818:000013000000000000000000000000000013000000130000
#0581a:000000000000001400000000
#06012:000000000000000000000023000000000014000000000014
#06015:000000000000001400001400
#06019:0013001300000000
#06017:13001324
#0601b:00130000
#0601a:0000000000240024
#06014:002300002300000000000000
#06016:000000000023000000000000000000000000000000000000
#0591b:130000000000000000000000130000000013000000000000
#05918:0013001300000013
#05912:130000000000000000000000140000000000000000000013
#05915:000000000013
#00015:0000000000260000
#05612:0024000024000000
#0561a:0000002400002400
#05616:00242500
#06117:24
#0381a:24
#03815:25
#03810:41
#00555:16
#00558:00630000
#02152:1600001300000054
#02157:0000005300000013
#0215b:0000000000230000
#00056:00000014
#00055:0000000000660000
#0015a:0054
#00352:0064
#00254:000000000000000000000064000000000000000000000000
#0025b:000000000023000000000000000000000000000000000000
#00655:00530000
#00758:00630000
#0075b:0000000000530000
#0095b:13
#00958:00630000
#01055:00530000
#01052:0000000000530000
#01255:000000000023
#01258:0000000000005523
#01253:000000000000000000000000000000000065000000000000
#01152:000000000054
#0115a:000000000064
#01158:000000000000000000000000000000000000000000000013
#01155:000000000000000000000000000000000000000000000013
#01156:14
#0145a:0000001400000014
#01456:0000000000000053
#01452:0000001400000000
#0155a:0000001400000000
#01556:0000005300000000
#01356:0064
#0135a:00640000
#01352:36
#01358:46
#0175a:14
#01756:0054
#01752:14540000
#01656:0000005300000000
#0165a:0000001400000000
#0185a:0000001400000000
#01852:0000001400000014
#01857:0000000000000063
#02052:0000001400000000
#0205a:0000001400000000
#01956:0000000000000054
#0195b:0000000000000013
#02256:0024000000645464
#02257:0000001300000000
#02252:0000001400000000
#02457:0000001300000013
#02452:2400001400000053
#02356:0000001300545454
#0235a:2400001400000000
#02556:0000001300000014
#0255b:0000005300000000
#02552:0000000000000054
#02656:0000001400000000
#0265a:0000001400000000
#02752:0000000000140000
#02757:0000000000130000
#03052:14
#0305a:14
#0305b:0000005300000000
#02955:00000065
#02957:14
#02952:14
#03155:000000000000000000000000000000000013000000000000
#0315a:14
#03156:23
#0335a:00140000
#03352:24
#0335b:0000000000000023
#03452:0000001300000000
#0345b:0023001300000000
#03455:53530000
#03558:000000000000000000000000000000000013000000000000
#03552:14
#03557:23
#03758:0053000000530000
#03755:0000005300000000
#03756:00000053
#03757:0000000000000054
#03752:1423
#0375b:00230000
#0375a:14
#0385a:14
#03855:55
#04655:0053006600000000
#04656:0014
#0465b:53
#04652:53
#04658:0053000000000000
#0475a:0000000000000064
#04756:0000006300000013
#04752:0000000000230000
#04758:16
#0475b:0000001300000000
#04956:0000001400000064
#05356:0000000000130000
#0535a:0000000000140000
#04856:0024001300000054
#0485a:0000001400000000
#05052:0000000000000053
#05056:0000001400000000
#0505b:0000000000000013
#0515a:0000005400000000
#05152:0000001400000055
#05159:0000000000000015
#05156:2324
#05252:0000001600000000
#05256:25
#05258:0000001600000000
#0555a:64000064
#05556:00000000240000000000000000000024
#05555:14
#05655:00000015
#05652:0054
#0565a:00000064
#05656:0015
#05756:15250000
#05752:54
#0575a:0054
#05952:1364
#06157:14
#0285a:0000000000540054
#02857:00000054
#05452:0000000000640064
#05455:00000064
#03655:0000000000000053
#06057:00000014
#0605a:0000000000140014
#03952:13
#0435b:0000001300000000
#04352:0000001300000000
#04452:0000001300000000
#0445b:0000001300000000
#04552:53
#0455b:00530000
#04555:0000000000000053
#04558:0000000000000053
#00458:000000000000000000000054000000000000000000000000
#00452:000000000023000000000000000000000000000000000000
#000350:0000000000160000
#000360:00000024
#001380:0000132300000000
#0013a0:0014
#001370:000000000000000000000000000000000023000000000000
#0023b0:000000000013000000000000000000000000000000000000
#002380:000000000000000000000024000000000000000000000000
#002341:000000000000000000000014000000000000000000000000
#002321:000000000000000000000000000000000023000000000000
#003351:0000132300000000
#003321:0014
#003361:000000000000000000000000000000000023000000000000
#004321:000000000013000000000000000000000000000000000000
#004341:000000000000000000000024000000000000000000000000
#004380:000000000000000000000014000000000000000000000000
#0043a0:000000000000002400000000
#005380:00130000
#0053b0:0000002300000000
#006350:00130000
#006320:0000002300000000
#007380:00130000
#0073b0:0000002300000000
#0073b0:0000000000130000
#007380:000000000000000000000000000000000023000000000000
#0083b0:0000000000000013
#0093b0:23
#009380:00130000
#0093b0:0000002300000000
#010350:00130000
#010320:0000002300000000
#010320:0000000000130000
#010360:000000000000000000000000000000000033000023000000
#0113a0:000000000000000000000000000000000014000034000000
#011380:000000000000000000000000000000000000000000000023
#011321:000000000000000000000000000000000014000034000000
#011351:000000000000000000000000000000000000000000000023
#012331:000000000000000000000000000000000015000000000000
#012351:000000000053
#013321:26
#012380:0000000000001553
#013380:26
#0133a0:00140000
#013360:000000000000000000000024000000000000000000000000
#013360:0014
#0133a0:0000000000540000
#0143a0:24
#014321:1400002400000000
#014361:0000000000000013
#015321:0023000000000000
#015361:0000001300000000
#015321:0000000000230000
#016361:0000001300000000
#016321:0000000000230000
#017321:00140000
#017361:000000000000000000000024000000000000000000000000
#017361:0014
#017321:0000000000540000
#018321:24
#0183a0:1400002400000000
#018370:0000000000000013
#0193b0:0023000000000000
#019360:0000000000000014
#020320:0000002400000000
#021370:0000001300000023
#0213b0:0000000000530000
#021321:0000000000000014
#022361:0054000000000000
#022321:0000002400000000
#022361:0000000000140000
#0223a1:00000024
#022360:00000014
#022320:0000000000000024
#022361:0000000000000014
#0233a1:54
#023361:0024000000000000
#023361:0000000000140000
#023321:00000024
#023360:00000014
#0233a0:0000000000000024
#023361:0000000000000014
#024321:54
#024361:0024000000000000
#024371:0000000000130023
#024320:0000000000000013
#025360:0053002300000000
#0253b1:0000001300000000
#025361:0000000000540024
#025320:0000000000000014
#026360:0054002400000000
#027320:0000000014240000
#0283a0:0000000014340034
#028370:00000034
#029370:24
#029350:000000000000000000000000000000000000153500000000
#030320:24
#0303b0:0000001300000000
#030370:0000000000230000
#031360:13
#031320:00230000
#033320:14
#033360:00240000
#033350:000000000000000000000000000000000013000000230000
#0333b1:0000000000000013
#034381:23
#034350:13
#034320:0023000000000000
#0343b1:0013000000000000
#034381:00230000
#034350:00130000
#034320:0000002300000000
#035370:13
#0353b0:00230000
#036350:0000000000132300
#036381:0000000000001323
#036350:0000000000000013
#037320:24
#037380:0013002300000000
#0373b0:00530000
#037351:0000001300230000
#037321:0053
#037380:0000000000130000
#0373b0:00000023
#037361:00000013
#037321:0000000000000024
#037370:0000000000000014
#0383a0:24
#038351:15
#039321:23
#0393c0:120000000032220000000000000000000000000000000000
#039350:000000000000000000000000120000000032220000000000
#040390:120000000032220000000000000000000000000000000000
#040320:000000000000000000000000120000000032220000000000
#041390:120000000032220000000000000000000000000000000000
#041350:000000000000000000000000120000000032220000000000
#0423c0:120000000032220000000000000000000000000000000000
#042320:0000000013000023
#0423b1:0000000000000013
#0433b1:0000002300000000
#0433b1:0000000000130023
#043320:0000000000000013
#044320:0000002300000000
#046350:0000001600000000
#046360:0024
#047360:0000001300000023
#047320:0000000000530000
#0473a1:0000000000000014
#048361:0054000000000000
#0483a1:0000002400000000
#048361:0000000000000014
#0493b1:0023000000000000
#049361:0000000000000014
#050321:0023000000000000
#0503b1:0000000000130023
#050320:0000000000000013
#051360:53
#051320:0054002400000000
#0513a1:0000001400000000
#051361:0054
#051391:0000000000550025
#051320:0000000000000015
#052360:55
#052320:0056002600000000
#0533a0:0000000014240000
#054320:0000000014340034
#054350:00000034
#055350:24
#0553a1:1424
#055361:00540000
#0553a1:00000014
#055361:00000000000000000000000000000054
#0563a1:0024000000000000
#056321:0014
#056351:00000025
#0563a0:00000014
#057360:25
#057321:1424
#057361:00550000
#0573a0:0014
#057370:000000000000000000000000000000000023000000000000
#058380:000000000013535353535323000000000000000000000000
#058390:000000000000000000000053005300530053005300530000000000000000000000000000000000000000000000000000
#058351:000000000000000000000013535353535323000000000000
#058341:000000000000000000000000000000000000000000000053005300530053005300530000000000000000000000000000
#059351:0000132300000000
#059321:0014
#059361:000000000000000000000000000000000023000000000000
#045920:13
#045950:000000000000000000000000000000000000000000000000000000000000000000000000000000000000000000000000000000000000000000000000000000000000000000000000000000000000000000000000000000000000000000000000000000000000000000000000000000000000000000000000000000000000000000000000000000000000000000000000000000000000000000000000000000005300000000000000000000000000000000000000000000000000000000000000000000000000000000000000000000000000000000000000000000000000000000000000000000000000000000000000000000000000000000000000000000000000000000000000000000000000000000000000000000000000000000000000000000000000000000000000000000000000000000000000000000000000000000000000000000000000000000000000000000000000000000000000000000000000000000000000000000000000000000000000000000000000000000000000000000000000000000000000000000000000000000000000000000000000000000000000000000000000000000000000000000000000000000000000000000000000000000000000000000000000000000000000000000000000000000005353230000000000000000000000000000000000000000000000000000000000000000000000000000000000000000000000000000000000000000000000000000000000000000000000000000000000000000000000000000000000000000000000000000000000000000000000000000000000000000000000000000000000000000000000000000000000000000000000000000000000000000000000000000000000000000000000000000000000000000000000000000000000000000000000000000000000000000000000000000000000000000000000000000000000000000000000000000000000000000000000000000000000000000000000000000000000000000000000000000000000000000000000000000000000000000000000000000000000000000000000000000000000000000000000000000000000000000000000000000000000000000000000000000000000000000000000000000000000000000000000000000000000000000000000000000000000000000000000000000000000000000000000000000000000000000000000000000000000000000000000000000000000000000000000000000000000000000000000000000000000000000000000000000000000000000000000000000000000000000000000000000000000000000000000000000000000000000000000000000000000000000000000000000000000000000000000000000000000000000000000000000000000000000000000000000000000000000000000000000000000000000000000000000000000000000000000000000000000000000000000000000000000000000000000000000000000000000000000000000000000000000000000000000000000000000000000000000000000000000000000000000000000000000000000000000000000000000000000000000000000000000000000000000000000000000000000000000000000000000000000000000000000000000000000000000000000000000000000000000000000000000000000000000000000000000000000000000000000000000000000000000000000000000000000000000000000000000000000000000000000000000000000000000000000000000000000000000000000000000000000000000000000000000000000000000000000000000000000000000000000000000000000000000000000000000000000000000000000000000000000000000000000000000000000000000000000000000000000000000000000000000000000000000000000000000000000000000000000000000000000000000000000000000000000000000000000000000000000000000000000000000000000000000000000000000000000000000000000000000000000000000000000000000000000000000000000000000000000000000000000000000000000000000000000000000000000000000000000000000000000000000000000000000000000000000000000000000000000000000000000000000000000000000000000000000000000000000000000000000000000000000000000000000000000000000000000000000000000000000000000000000000000000000000000000000000000000000000000000000000000000000000000000000000000000000000000000000000000000000000000000000000000000000000000000000000000000000000000000000000000000000000000000000000000000000000000000000000000000000000000000000000000000000000000000000000000000000000000000000000000000000000000000000000000000000000000000000000000000000000000000000000000000000000000000000000000000000000000000000000000000000000000000000000000000000000000000000000000000000000000000000000000000000000000000000000000000000000000000000000000
#0459b1:00130000
#045981:000000000000000000000000000000000000000000000000000000000000000000000000000000000000000000000000000000000000000000000000000000000000000000000000000000000000000000000000000000000000000000000000000000000000000000000000000000000000000000000000000000000000000000000000000000000000000000000000000000000000000000000000000000000000000000000000000000000000000000000000000000000000000000000000000000000000000000000000000000000000000000000000000000000000000000000000000000000000000000000000000000000000000000000000000000000000000000000000000000000000000000000000000000000000000000000000000000000000000000000000000000000000000000000000000000000000000000000000000000000000000000000000000000000000000000000000000000000000000000000000000000000000000000000000000000000000000000000000000000000000000000000000000000000000000000000000000000000000000000000000000000000000000000000000000000000000000000000000000000000000000000000000000000000000000000000000000000000000000000000000000000000000000000000000000000000000000000000000000000000000000000000000000000000000000000000000000000000000000000000000000000000000000000000000000000000000000000000000000000000000000000000000000000000000000000000000000000000000000000000000000000000000000000000000000000000000000000000000000000000000000000000000000000005300000000000000000000000000000000000000000000000000000000000000000000000000000000000000000000000000000000000000000000000000000000000000000000000000000000000000000000000000000000000000000000000000000000000000000000000000000000000000000000000000000000000000000000000000000000000000000000000000000000000000000000000000000000000000000000000000000000000000000000000000000000000000000000000000000000000000000000000000000000000000000000000000000000000000000000000000000000000000000000000000000000000000000000000000000000000000000000000000000000000000000000000000000000000000000000000000000000000000000000000000000000000000000000000000000000005353230000000000000000000000000000000000000000000000000000000000000000000000000000000000000000000000000000000000000000000000000000000000000000000000000000000000000000000000000000000000000000000000000000000000000000000000000000000000000000000000000000000000000000000000000000000000000000000000000000000000000000000000000000000000000000000000000000000000000000000000000000000000000000000000000000000000000000000000000000000000000000000000000000000000000000000000000000000000000000000000000000000000000000000000000000000000000000000000000000000000000000000000000000000000000000000000000000000000000000000000000000000000000000000000000000000000000000000000000000000000000000000000000000000000000000000000000000000000000000000000000000000000000000000000000000000000000000000000000000000000000000000000000000000000000000000000000000000000000000000000000000000000000000000000000000000000000000000000000000000000000000000000000000000000000000000000000000000000000000000000000000000000000000000000000000000000000000000000000000000000000000000000000000000000000000000000000000000000000000000000000000000000000000000000000000000000000000000000000000000000000000000000000000000000000000000000000000000000000000000000000000000000000000000000000000000000000000000000000000000000000000000000000000000000000000000000000000000000000000000000000000000000000000000000000000000000000000000000000000000000000000000000000000000000000000000000000000000000000000000000000000000000000000000000000000000000000000000000000000000000000000000000000000000000000000000000000000000000000000000000000000000000000000000000000000000000000000000000000000000000000000000000000000000000000000000000000000000000000000000000000000000000000000000000000000000000000000000000000000000000000000000000000000000000000000000000000000000000000000000000000000000000000000000000000000000000000000000000000000000000000000000000000000000000000000000000000000000000000000000000
#045981:0000000000130053
#0459b1:000000000000000000000000000000000000000000000053
#0469b1:530000000000000000000000000000000000000000000000000000000000000000000000000000000000000000000000000000000000000000000000000000000000000000000000000000000000000000000000000000000000000000000000000000000000000000000000000000000000000000000000000000000000000000000000000000000000000000000000000000000000000000000000000000000000000000000000000000000000000000000000000000000000000000000000000000000000000000000000000000000000000000000000000000000000000000000000000000000000000000000000000000000000000000000000000000000000000000000000000000000000000000000000000000000000000000000000000000000000000000000000000000000000000000000000000000000000000000000000000000000000000000000000000000000000000000000000000000000000000000000000000000000000000000000000000000000000000000000000000000000000000000000000000000005300000000000000000000000000000000000000000000000000000000000000000000000000000000000000000000000000000000000000000000000000000000000000000000000000005353535353230000000000000000000000000000000000000000000000000000000000000000000000000000000000000000000000000000000000000000000000000000000000000000000000000000000000000000000000000000000000000000000000000000000000000000000000000000000000000000000000000000000000000000000000000000000000000000000000000000000000000000000000000000000000000000000000000000000000000000000000000000000000000000000000000000000000000000000000000000000000000000000000000000000000000000000000000000000000000000000000000000000000000000000000000000000000000000000000000000000000000000000000000000000000000000000000000000000000000000000000000000000000000000000000000000000000000000000000000000000000000000000000000000000000000000000000000000000000000000000000000000000000000000000000000000000000000000000000000000000000000000000000000000000000000000000000000000000000000000000000000000000000000000000000000000000000000000000000000000000000000000000000000000000000000000000000000000000000000000000000000000000000000000000000000000000000000000000000000000000000000000000000000000000000000000000000000000000000000000000000000000000000000000000000000000000000000000000000000000000000000000000000000000000000000000000000000000000000000000000000000000000000000000000000000000000000000000000000000000000000000000000000000000000000000000000000000000000000000000000000000000000000000000000000000000000000000000000000000000000000000000000000000000000000000000000000000000000000000000000000000000000000000000000000000000000000000000000000000000000000000000000000000000000000000000000000000000000000000000000000000000000000000000000000000000000000000000000000000000000000000000000000000000000000000000000000000000000000000000000000000000000000000000000000000000000000000000000000000000000000000000000000000000000000000000000000000000000000000000000000000000000000000000000000000000000000000000000000000000000000000000000000000000000000000000000000000000000000000000000000000000000000000000000000000000000000000000000000000000000000000000000000000000000000000000000000000000000000000000000000000000000000000000000000000000000000000000000000000000000000000000000000000000000000000000000000000000000000000000000000000000000000000000000000000000000000000000000000000000000000000000000000000000000000000000000000000000000000000000000000000000000000000000000000000000000000000000000000000000000000000000000000000000000000000000000000000000000000000000000000000000000000000000000000000000000000000000000000000000000000000000000000000000000000000000000000000000000000000000000000000000000000000000000000000000000000000000000000000000000000000000000000000000000000000000000000000000000000000000000000000000000000000000000000000000000000000000000000000000000000000000000000000000000000000000000000000000000000000000000000000000000000000000000000000000000000000000000000000000000000000000000000000000000000000000000000000000000000000000000000
#046981:000053530000000000000000000000000000000000000000
#045950:0000000000000013
#045920:000000000000000000000000000000000000000000000053
#046920:530000000000000000000000000000000000000000000000000000000000000000000000000000000000000000000000000000000000000000000000000000000000000000000000000000000000000000000000000000000000000000000000000000000000000000000000000000000000000000000000000000000000000000000000000000000000000000000000000000000000000000000000000000000000000000000000000000000000000000000000000000000000000000000000000000000000000000000000000000000000000000000000000000000000000000000000000000000000000000000000000000000000000000000000000000000000000000000000000000000000000000000000000000000000000000000000000000000000000000000000000000000000000000000000000000000000000000000000000000000000000000000000000000000000000000000000000000000000000000000000000000000000000000000000000000000000000000000000000000000000000000000000000000005300000000000000000000000000000000000000000000000000000000000000000000000000000000000000000000000000000000000000000000000000000000000000000000000000000053535353230000000000000000000000000000000000000000000000000000000000000000000000000000000000000000000000000000000000000000000000000000000000000000000000000000000000000000000000000000000000000000000000000000000000000000000000000000000000000000000000000000000000000000000000000000000000000000000000000000000000000000000000000000000000000000000000000000000000000000000000000000000000000000000000000000000000000000000000000000000000000000000000000000000000000000000000000000000000000000000000000000000000000000000000000000000000000000000000000000000000000000000000000000000000000000000000000000000000000000000000000000000000000000000000000000000000000000000000000000000000000000000000000000000000000000000000000000000000000000000000000000000000000000000000000000000000000000000000000000000000000000000000000000000000000000000000000000000000000000000000000000000000000000000000000000000000000000000000000000000000000000000000000000000000000000000000000000000000000000000000000000000000000000000000000000000000000000000000000000000000000000000000000000000000000000000000000000000000000000000000000000000000000000000000000000000000000000000000000000000000000000000000000000000000000000000000000000000000000000000000000000000000000000000000000000000000000000000000000000000000000000000000000000000000000000000000000000000000000000000000000000000000000000000000000000000000000000000000000000000000000000000000000000000000000000000000000000000000000000000000000000000000000000000000000000000000000000000000000000000000000000000000000000000000000000000000000000000000000000000000000000000000000000000000000000000000000000000000000000000000000000000000000000000000000000000000000000000000000000000000000000000000000000000000000000000000000000000000000000000000000000000000000000000000000000000000000000000000000000000000000000000000000000000000000000000000000000000000000000000000000000000000000000000000000000000000000000000000000000000000000000000000000000000000000000000000000000000000000000000000000000000000000000000000000000000000000000000000000000000000000000000000000000000000000000000000000000000000000000000000000000000000000000000000000000000000000000000000000000000000000000000000000000000000000000000000000000000000000000000000000000000000000000000000000000000000000000000000000000000000000000000000000000000000000000000000000000000000000000000000000000000000000000000000000000000000000000000000000000000000000000000000000000000000000000000000000000000000000000000000000000000000000000000000000000000000000000000000000000000000000000000000000000000000000000000000000000000000000000000000000000000000000000000000000000000000000000000000000000000000000000000000000000000000000000000000000000000000000000000000000000000000000000000000000000000000000000000000000000000000000000000000000000000000000000000000000000000000000000000000000000000000000000000000000000000000000000000000000000000000
#046950:000053530000000000000000000000000000000000000000
#055940:0013
#055920:000000000000000000000000000000000000000000000000000000000000000000000000000000000000000000000000000000000000000000000000000000000000000000000000000000000000000000000000000000000000000000000000000000000000000000000000000000000000000000000000000000000000000000000000000000000000000000000000000000000000000000000000000000000000000000000000000000000000000000000000000000000000000000000000000000000000000000000000000000000000000000000000000000000000000000000000000000000000000000000000000000000000000000000000000000000000000000000000000000000000000000000000000000000000000000000000000000000000000000000000000000000000000000000000000000000000000000000000000000000000000000000000000000000000000000000000000000000000000000000000000000000000000000000000000000000000000000000000000000000000000000000000000000000000000000000000000000000000000000000000000000000000000000000000000000000000000000000000000000000000000000000000000000000000000000000000000000000000000000000000000000000000000000000000000000000000000000000000000000000000000000000000000000000000000000000000000000000000000000000000000000000000000000000000000000000000000000000000000000000000000000000000000000000000000000000000000000000000000000000000000000000000000000000000000000000000000000000000000000000000000000000000000000000000000000000000000000000000000000000000000000000000000000000000000000000000000000000000000000000000000000000000000000000000000000000000000000000000000000000000000000000000000000000000000000000000000000000000000000000000000000000000000000000000000000000000000000000000000000000000000000000000000000000000000000000000000000000000000000000000000000000000000000000000000000000000000000000000000000000000000000000000000000000000000000000000000000000000000000000000000000000000000000000000000000000000000000000000000000000000000000000000000000000000000000000000000000000000000000000000000000000000000000000000000000000000000000000000000000000000000000000000000000000000000000000000000000000000000000005353230000000000000000000000000000000000000000000000000000000000000000000000000000000000000000000000000000000000000000000000000000000000000000000000000000000000000000000000000000000000000000000000000000000000000000000000000000000000000000000000000000000000000000000000000000000000000000000000000000000000000000000000000000000000000000000000000000000000000000000000000000000000000000000000000000000000000000000000000000000000000000000000000000000000000000000000000000000000000000000000000000000000000000000000000000000000000000000000000000000000000000000000000000000000000000000000000000000000000000000000000000000000000000000000000000000000000000000000000000000000000000000000000000000000000000000000000000000000000000000000000000000000000000000000000000000000000000000000000000000000000000000000000000000000000000000000000000000000000000000000000000000000000000000000000000000000000000000000000000000000000000000000000000000000000000000000000000000000000000000000000000000000000000000000000000000000000000000000000000000000000000000000000000000000000000000000000000000000000000000000000000000000000000000000000000000000000000000000000000000000000000000000000000000000000000000000000000000000000000000000000000000000000000000000000000000000000000000000000000000000000000000000000000000000000000000000000000000000000000000000000000000000000000000000000000000000000000000000000000000000000000000000000000000000000000000000000000000000000000000000000000000000000000000000000000000000000000000000000000000000000000000000000000000000000000000000000000000000000000000000000000000000000000000000000000000000000000000000000000000000000000000000000000000000000000000000000000000000000000000000000000000000000000000000000000000000000000000000000000000000000000000000000000000000000000000000000000000000000000000000000000000000000000000000000000000000000000000000000000000000
#055940:0000000000130000
#055920:000000000000000000000000000000000000000000000000000000000000000000000000000000000000000000000000000000000000000000000000000000000000000000000000000000000000000000000000000000000000000000000000000000000000000000000000000000000000000000000000000000000000000000000000000000000000000000000000000000000000000000000000000000000000000000000000000000000000000000000000000000000000000000000000000000000000000000000000000000000000000000000000000000000000000000000000000000000000000000000000000000000000000000000000000000000000000000000000000000000000000000000000000000000000000000000000000000000000000000000000000000000000000000000000000000000000000000000000000000000000000000000000000000000000000000000000000000000000000000000000000000000000000000000000000000000000000000000000000000000000000000000000000000000000000000000000000000000000000000000000000000000000000000000000000000000000000000000000000000000000000000000000000000000000000000000000000000000000000000000000000000000000000000000000000000000000000000000000000000000000000000000000000000000000000000000000000000000000000000000000000000000000000000000000000000000000000000000000000000000000000000000000000000000000000000000000000000000000000000000000000000000000000000000000000000000000000000000000000000000000000000000000000000000000000000000000000000000000000000000000000000000000000000000000000000000000000000000000000000000000000000000000000000000000000000000000000000000000000000000000000000000000000000000000000000000000000000000000000000000000000000000000000000000000000000000000000000000000000000000000000000000000000000000000000000000000000000000000000000000000000000000000000000000000000000000000000000000000000000000000000000000000000000000000000000000000000000000000000000000000000000000000000000000000000000000000000000000000000000000000000000000000000000000000000000000000000000000000000000000000000000000000000000000000000000000000000000000000000000000000000000000000000000000000000000000000000000000000000000000000000000000000000000000000000000000000000000000000000000000000000000000000000000000000000000000000000000000000000000000000000000000000000000000000000000000000000000000000000000000000000000000000000000000000000000000000000000000000000000000000000000000000000000000000000000000000000000000000000000000000000000000000000000000000000000000000000000000000000000000000000000000000000000000000000000000000000000000000000000000000000000000000000000000000000000000000000000000000000000005353230000000000000000000000000000000000000000000000000000000000000000000000000000000000000000000000000000000000000000000000000000000000000000000000000000000000000000000000000000000000000000000000000000000000000000000000000000000000000000000000000000000000000000000000000000000000000000000000000000000000000000000000000000000000000000000000000000000000000000000000000000000000000000000000000000000000000000000000000000000000000000000000000000000000000000000000000000000000000000000000000000000000000000000000000000000000000000000000000000000000000000000000000000000000000000000000000000000000000000000000000000000000000000000000000000000000000000000000000000000000000000000000000000000000000000000000000000000000000000000000000000000000000000000000000000000000000000000000000000000000000000000000000000000000000000000000000000000000000000000000000000000000000000000000000000000000000000000000000000000000000000000000000000000000000000000000000000000000000000000000000000000000000000000000000000000000000000000000000000000000000000000000000000000000000000000000000000000000000000000000000000000000000000000000000000000000000000000000000000000000000000000000000000000000000000000000000000000000000000000000000000000000000000000000000000000000000000000000000000000000000000000000000000000000000000000000000000000000000000000000000000000000000000000000000000000000000000000000000000000000
