This file was generated by Ched 2.7.0.0.
#TITLE ""
#ARTIST ""
#DESIGNER ""
#DIFFICULTY 0
#PLAYLEVEL
#SONGID ""
#WAVE ""
#WAVEOFFSET 0
#JACKET ""
#REQUEST "ticks_per_beat 480"
#00002: 4
#BPM01: 124
#00008: 01
#TIL00: ""
#VOLUME: ""
#HISPEED 00
#MEASUREHS 00
#00118:0000130000000013
#00115:000000130000000000000000130000000000000013000000
#0011a:14
#0011b:0013
#00518:0013000013000023
#0051b:0000001300000000
#00515:000000000000130000000013000000000000230000000000
#00512:0000000000230000
#00510:41
#01118:000000140033
#01114:00140000
#01116:0000001400000000
#01112:0014000000000000
#0111a:000000000000000000000000000000000014000000000000
#01318:000000000000000000000013000000000000130000000000
#0131b:0000000000130000
#01315:0000000013000013
#01312:00240000
#0131a:00240000
#01310:41
#01418:0013000000131313
#01415:00130000
#0141b:0000001300000000
#01412:1300000000131313
#0151a:0014141400000000
#01518:0000000000130013
#01515:00000013
#01514:0014141400000000
#01615:0013000000001300
#01618:0000130000000013
#0161b:0000001300000000
#01612:13
#01715:130000000000000000000013000000000000130000000000
#01712:0000240000130000
#01718:0000000013000013
#0171a:00240000
#02018:00000013
#02015:0000000000000013
#02012:0025252500130000
#02019:0025252500000000
#02115:0013000000000014
#02118:00130013
#02112:0000001400000000
#0211a:24
#02110:41
#03018:000000000013000000130000000000000000130000000000
#03015:0000130000000013
#03012:0000000000130000
#00212:000000000013000000000000000033000000000000000000
#00215:000000000000000033000013000000000000000000130000
#00218:000000000013
#00618:000000000000130000000013000000000000230000000000
#00615:0013000013000023
#00612:0000001300000000
#0061b:0000000000230000
#00715:000000000000130000000013000000000000000000000053
#00718:0013000013000000
#0071b:0000001300000000
#00712:000000000000000000000000000000130053000053630000
#00915:530000000000130000000013000000000000000000000000
#00918:5313
#0091b:0013001300000000
#00912:0000000000240000
#00916:00000024
#0091a:0000000000000024
#02218:0000130000000013
#02212:0000001400000000
#0221b:0000000000130000
#02215:00000013
#02618:0000000000000013
#0261b:0013000000130000
#02615:0023000000001300
#02619:00330000
#02613:00330000
#02915:00130013
#02918:0000000013130000
#0291a:24
#00318:000000130000130000001300
#00315:0013000000000013
#00312:0013
#0031a:14
#0041b:000000000013000000000000000000000000000000000000
#00415:0000000000140000
#00412:00000014
#0041a:0000000000240024
#00417:00000024
#00418:003300
#01018:000000000000130000000013000000000000000000000000
#01015:0013
#01012:0013001300000000
#01017:000000000000000000000000000000000034000014340000
#0101a:000000000000000000000000000000240000000000000034
#01918:0013001300000000
#01915:00130000
#01912:0014
#01916:0000000000140000
#0191a:00000014
#01914:0000000000000024
#01814:0000000000140000
#01813:00000014
#01812:0000002300000014
#0181a:0000000000140000
#01819:00000014
#01818:0000230000000014
#01815:0023000000000000
#0181b:23
#0231b:0013000000000000
#02315:0013000000000023
#02318:00330023
#02312:0000330000230000
#02412:0013000000000000
#02418:0023000000001300
#02415:0000330000130000
#0241b:00330000
#02712:13131300
#02715:0013001300000000
#0271b:0000000000000013
#02818:13130024
#0281b:0013001300000000
#02814:0000000000000024
#02812:0000000000240000
#0321b:1313001300130000
#03215:00240024
#0311b:2300000013130000
#03115:00240024
#03110:41
#03412:1313001300130000
#03417:00240024
#03312:1300000013130000
#03317:00240024
#0361b:1313001300130000
#03615:00250025
#0351b:2300000013130000
#03515:00250025
#03712:2300000013130000
#03716:00250025
#0391a:00130000
#03919:0013
#03918:00000013
#0391b:13
#0391f:11
#04012:13
#04013:00130000
#04014:0013
#04015:00000013
#04017:13
#04116:13
#0411b:13
#04119:0013
#04118:00000013
#0411a:00130000
#04217:13
#04212:13
#04213:00130000
#04215:00000013
#04214:0013
#0431a:00130000
#04319:0013
#04318:00000013
#0431b:13
#04413:00130000
#04414:0013
#04415:00000013
#04617:1353530000000000
#04615:00000013
#04618:0000000000000013
#0461b:0000000000130000
#0451a:00130000
#04518:00000013
#04519:0013
#04718:0013000000000000
#04715:00130013
#0471a:0000001400000000
#04717:0000000000000014
#04712:24
#0471f:21
#04710:00410000
#05015:0023000000001300
#05018:0000330000130000
#0501b:0013000000000000
#05012:00330000
#04815:0000130000000013
#0481a:0000001400000000
#04812:0000000000130000
#04818:00000013
#05215:0000000000000014
#05212:0013000000140000
#05217:00000014
#05218:0023000000000000
#05214:00330000
#0521a:00330000
#04912:0013000000000000
#04918:0013000000000023
#04915:00330023
#0491b:0000330000230000
#0511b:0000000000130000
#05118:0013000000000000
#05112:0013000000000000
#05115:0000000000230000
#0511a:00330000
#05114:00330000
#05119:00000033
#05113:00000033
#05516:00140000
#05512:24000014
#0551a:00000014
#05618:14152600
#05614:0014000000000000
#05613:0000001500000000
#05612:00000026
#06017:0000000000140014
#0601a:00000014
#06018:13
#06012:0000000000240024
#06015:002300006300000000240000
#06013:000000000063000000000063000000000000000000000000
#0611a:14
#06115:24
#0081b:000000000000000013630000000053630000000053630000
#00812:000000000053000053630000000053630000000053630000
#00814:000000000000000000000053630000000053630000000000
#00815:000053630000000000000000000000000000000000000000
#00819:000000000000000000000053630000000053630000000000
#05814:1414000000140000
#05818:00161316
#05815:000000000000000000000013000000000000000000000000
#05918:0014000000130000
#05914:14
#05912:00160016
#05915:000000000000001300000000
#0591a:0014
#0531a:14141400
#05317:0014001400000000
#05312:0000000000000014
#05412:0014001400000000
#05415:14140000
#05414:00000024
#05418:0000000000000024
#0541a:0000000000240000
#02512:0000000000130000
#02515:0013000000000000
#0251b:0013000000000000
#02518:0000000000230000
#02513:00330000
#02519:00330000
#02514:00000033
#0251a:00000033
#03812:24
#0381a:24
#03810:41
#01212:0023000000000000
#01215:00230000
#01218:0000002300000000
#01214:0024
#01217:0000000000240000
#0121a:00000024
#05718:26
#0215a:14
#02152:0000005400000000
#02155:0000000000000054
#00252:000000000053000000000000000000000000000000000000
#00255:000000000000000000000063000000000000000000000000
#0115a:140000000000000000000000000000000064000000000000
#01158:000000000000000000000000000000000000000000000013
#0145b:0000001300000000
#01458:0000000000000013
#01452:0000000000000013
#0155a:0000001400000000
#01554:0000001400000000
#01755:13
#0165b:0000005300000000
#01852:0000001300000014
#01858:0000000000000014
#02252:0000001400000000
#02258:0000000000000063
#02355:0063000000000053
#0235b:0063000000000000
#02352:0000001300000000
#02358:0000001300000000
#03052:13
#02955:00000063
#0295a:14
#05658:0016
#05652:00000016
#0015a:14
#0015b:0023
#00155:0023
#0045b:000000000063000000000000000000000000000000000000
#00555:14
#0055a:14
#00958:13
#00955:13
#01057:000000000054
#0105a:0000000000540000
#01954:0000000000000014
#02452:0053000000000000
#0245b:0000001300000000
#02458:0053000000000000
#02455:0000001300000000
#02755:0063006300130000
#02752:63636300
#0275b:0000000000000063
#02858:63630000
#0285b:0063006300000000
#0475a:0000006400000000
#04757:0000000000000064
#04752:14
#0485a:0000001400000000
#04855:0000000000000053
#04952:0053000000000000
#04958:0053000000000063
#04955:0000001300000000
#0495b:0000001300000000
#0505b:0063000000000000
#05055:0063000000000000
#05058:0000001300000000
#05052:0000001300000000
#05252:0063000000000000
#05258:0063000000000000
#05255:0000001300000000
#0525b:0000001300000000
#0515b:0000000000630000
#05158:0063000000000013
#05152:0063000000000000
#05155:0000001300630000
#05556:00240000
#05552:54
#00358:0023
#00352:0023
#0315b:13
#03352:13
#0355b:13
#04657:00130000
#04652:00130000
#0615a:14
#06155:14
#0125a:00000064
#01355:16
#03852:14
#0385a:14
#05755:0016
#05758:56
#05858:00160016
#05952:00160016
#05357:0054005400140000
#0535a:54545400
#05352:0000000000000064
#05452:0064006400000000
#05455:64641400
#0265b:0053000000000000
#02655:0053000000000000
#02658:0000001300000000
#02652:0000001300000000
#02552:0000000000530000
#02555:0053000000000013
#0255b:0053000000000000
#02558:0000001300530000
#00852:0000000000000063
#0085b:0000000000000053
#03752:13
#001350:0013
#001320:000000000000000000000000000000000023000000000000
#0013b1:0013
#001381:000000000000000000000000000000000023000000000000
#002321:130033000033000000000000000033000023000000000000
#002351:000000000000000033000033000000000000000000000000
#003381:0013
#0033b1:000000000000000000000000000000000023000000000000
#003320:0013
#003350:000000000000000000000000000000000023000000000000
#0043b0:130033000033000000000000000000000000000000000000
#004380:000000000000000033000023000000000000000000000000
#004350:0000000000000014
#005350:24
#0043a1:0000000000000014
#0053a1:24
#0103a1:000000000000000000000000000000140000000000000034
#010371:000000000000000000000000000000000034000034340000
#0113a1:24
#0113a1:000000000000000000000000000000140034000000000000
#011381:000000000000000000000000000000000000000033000023
#0123a1:00000014
#013351:26
#0163b1:0000001300000000
#016381:0000000000230000
#021321:0000001400000000
#021351:0000000000240000
#021351:0000000000000014
#022321:0024000000000000
#022381:0000000000000013
#0233b1:0033000000000000
#023381:0000332300000000
#023350:0013000000000000
#023320:0000332300000000
#023350:0000000000000013
#024320:0033000000000000
#024350:0000332300000000
#024381:0013000000000000
#0243b1:0000332300000000
#0243b1:0000000000000013
#0253b1:0033000000000000
#025391:00330000
#025381:0000002300000000
#025350:0013000000000023
#025330:00330000
#025320:0000003300330000
#025340:00000033
#025381:0000000000130000
#0253a1:00000033
#0253b1:0000000000000033
#0263b1:0033000000000000
#026391:00330000
#026381:0000002300000000
#026350:0013000000000000
#026330:00330000
#026320:0000002300000000
#027320:13333300
#027350:0033003300230000
#0273b0:0000000000000013
#028380:33332300
#0283b0:0033003300000000
#029350:00000013
#030320:23
#043360:13
#044320:23
#044371:13
#0453b1:23
#045360:13
#046320:3333230000000000
#0473a0:0000001400000000
#047370:0000000000240000
#047370:0000000000000014
#0483a0:0024000000000000
#048350:0000000000000013
#049320:0033000000000000
#049350:0000332300000000
#049381:0013000000000000
#0493b1:0000332300000000
#049381:0000000000000013
#0503b1:0033000000000000
#050381:0000332300000000
#050350:0013000000000000
#050320:0000332300000000
#050320:0000000000000013
#051320:0033000000000000
#051340:00330000
#051350:0000002300000000
#051381:0013000000000023
#0513a1:00330000
#0513b1:0000003300330000
#051391:00000033
#051350:0000000000130000
#051330:00000033
#051320:0000000000000033
#052320:0033000000000000
#052340:00330000
#052350:0000002300000000
#052381:0013000000000000
#0523a1:00330000
#0523b1:0000002300000000
#0533a1:14343400
#053371:0034003400240000
#053321:0000000000000014
#054351:34342400
#054321:0034003400000000
#055321:1424
#055361:00540000
#057381:16
#057351:0026
#007920:0000000000130053
#007950:000000000000000000000000000000000000000000000053
#008950:000000000000000000000000000000000000000000000000000000000000000000000000000000000000000000000000000000000000000000000000000000000000000000000000000000000000000000000000000000000000000000000000000000000000000000000000000000000000000000000000000000000000000000000000000000000000000000000000000000000000000000000000000000000000000000000000000000000000000000000000000000000000000000000000000000000000000000000000000000000000000000000000000000000000000000000000000000000000000000000000530000000000000000000000000000000000000000000000000000000000000000000000000000000000000000000000000000000000000000000000000000000000000000000000000000000000000000000000000000000000000000000000000000000000000000000000000000000000000000000000000000000000000000000000000000000000000000000000000000000000000000000000000000000000000000000000000000000000000000000000000000000000000000000000000000000000000000000000000000000000000000000000000000000000000000000000000000000000000000000000000000000000000000000000000000000000000000000000000000000000000000000000000000000000000000000000000000000000000000000000000000000000000000000000000000000000000000000000000000000000000000000000000000000000000000000000000000000000000000000000000000000000000000000000000000000000000000000000000000000000000000000000000000000000000000000000000000000000000000000000000000000000000000000000000000000000000000000000000000000000000000000000000000000000000000000000000000000000000000000000000000000000000000000000000000000000000000000000000000000000000000000000000000000000000000000000000000000000000000000000000000000000000000000000000000000000000000000000000000000000000000000000000000000000000000000000000000000000000000000000000000000000000000000000000000000000000000000000000000000000000000000000000000000000000000000000000000000000000000000000000000000000000000000000000000000000000000000000000000000000000000000000000000000000000000000000000000000000000000000000000000000000000000000000000000000000000000000000000000000000000000000000000000000000000000000000000000000000000000000000000000000000000000000000000000000000000000000000000000000000000000000000000000000000000000000000000000000000000000000000000000000000000000000000000000000000000000000000000000000000000000000000000000000000000000000000000000000000000000000000000000000000000000000000000000000000000000000000000000000000000000000000000000000000000000000000000000000000000000000000000000000000000000000000000000000000000000000000000000000000000000000000000000000000000000000000000000000000000000000000000000000000000000000000000000000000000000000000000000000000000000000000000000000000000000000000000000000000000000000000000000000000000000000000000000000000000000000000000000000000000000000000000000000000000000000000000000000000000000000000000000000000000000000000000000000000000000000000000000000000000000000000000000000000000000000000000000000000000000000000000000000000000000000000000000000000000000000000000000000000000000000000000000000000000000000000000000000000000000000000000000000000000000000000000000000000000000000000000000000000000000000000000000000000000000000000000000000000000000000000000000000000000000000000000000000000000000000000000000000000000000000000000000000000000000000000000000000000000000000000000000000000000000000000000000000000000000000000000000000000000000000000000000000000000000000000000000000000000000000000000000000000000000000000000000000000000000000000000000000000000000000000000000000000000000000000000000000000000000000000000000000000000000000000000000000000000000000000000000000000000000000000000000000000000000000000000000000000000000000000000000000000000000000000000000000000000000000000000000000000000000000000000000000000000000000000000000000000000000000000000000000000000000000000000000000000000000000000000000000000000000000000000000000000000000000000000053535353535353535353
#008920:000000000053000053530000000053530000000053530000
#008940:000000000000000000000053530000000053530000000000
#009950:23
#0089b1:000000000000000013530000000053530000000053530000
#008991:000000000000000000000053530000000053530000000000
#008981:000000000000000000000000000000000000000000000000000000000000000000000000000000000000000000000000000000000000000000000000000000000000000000000000000000000000000000000000000000000000000000000000000000000000000000000000000000000000000000000000000000000000000000000000000000000000000000000000000000000000000000000000000000000000000000000000000000000000000000000000000000000000000000000000000000000000000000000000000000000000000000000000000000000000000000000000000000000000000000000000000000000000000000000000000000000000000000000000000000000000000000000000000000000000000000000000000000000000000000000000000000000000000000000000000000000000000000000000000000000000000000000000000000000000000000000000000000000000000000000000000000000000000000000000000000000000000000000000000000000000000000000000000000000000000000000000000000000000000000000000000000000000000000000000000000000000000000000000000000000000000000000000000000000000000000000000000000000000000000000000000000000000000000000000000000000000000000000000000000000000000000000000000000000000000000000000000000000000000000000000000000000000000000000000000000000000000000000000000000000000000000000000000000000000000000000000000000000000000000000000000000000000000000000000000000000000000000000000000000000000000000000000000000000000000000000000000000000000000000000000000000000000000000000000000000000000000000000000000000000000000000000000000000000000000000000000000000000000000000000000000000000000000000000000000000000000000000000000000000000000000000000000000000000000000000000000000000000000000000000000000000000000000000000000000000000000000000000000000000000000000000000000000000000000000000000000000000000000000000000000000000000000000000000000000000000000000000000000000000000000000000000000000000000000000000000000000000000000000000000000000000000000000000000000000000000000000000000000000000000000000000000000000000000000000000000000000000000000000000000000000000000000000000000000000000000000000000000000000000000000000000000000000000000000000000000000000000000000000000000000000000000000000000000000000000000000000000000000000000000000000000000000000000000000000000000000000000000000000000000000000000000000000000000000000000000000000000000000000000000000000000000000000000000000000000000000000000000000000000000000000000000000000000000000000000000000000000000000000000000000000000000000000000000000000000000000000000000000000000000000000000000000000000000000000000000000000000000000000000000000000000000000000000000000000000000000000000000000000000000000000000000000000000000000000000000000000000000000000000000000000000000000000000000000000000000000000000000000000000000000000000000000000000000000000000000000000000000000000000000000000000000000000000000000000000000000000000000000000000000000000000000000000000000000000000000000000000000000000000000000000000000000000000000000000000000000000000000000000000000000000000000000000000000000000000000000000000000000000000000000000000000000000000000000000000000000000000000000000000000000000000000000000000000000000000000000000000000000000000000000000000000000000000000000000000000000000000000000000000000000000000000000000000000000000000000000000000000000000000000000000000000000000000000000000000000000000000000000000000000000000000000000000000000000000000000000000000000000000000000000000000000000000000000000000000000000000000000000000000000000000000000000000000000000000000000000000000000000000000000000000000000000000000000000000000000000000000000000000000000000000000000000000000000000000000000000000000000000000000000000000000000000000000000000000000000000000000000000000000000000000000000000000000000000000000000000000000000000000000000000000000000000000000000000000000000000000000000000000000000000000000000000000000000000000000000000000000000000000000000000000000000000000000000000000000000000000000000000005353535353
#009981:23
#046971:130000000000000000000000000000000000000000000000000000000000000000000000000000000000000000000000000000000000000000000000000000000000000000000000000000000000000000000000000000000000000000000000000000000000000000000000000000000000000000000000000000000000000000000000000000000000000000000000000000000000000000000000000000000000000000000000000000000000000000000000000000000000000000000000000000000000000000000000000000000000000000000000000000000000000000000000000000000000000000000000000000000000000000000000000000000000000000000000000000000000000000000000000000000000000000000000000000000000000000000000000000000000000000000000000000000000000000000000000000000000000000000000000000000000000000000000000000000000000000000000000000000000000000000000000000000000000000000000000000000000000000000000000000000000000000000000000000000000000000000000000000000000000000000000000000000000000000000000000000000000000000000000000000000000000000000000000000000000000000005353230000000000000000000000000000000000000000000000000000000000000000000000000000000000000000000000000000000000000000000000000000000000000000000000000000000000000000000000000000000000000000000000000000000000000000000000000000000000000000000000000000000000000000000000000000000000000000000000000000000000000000000000000000000000000000000000000000000000000000000000000000000000000000000000000000000000000000000000000000000000000000000000000000000000000000000000000000000000000000000000000000000000000000000000000000000000000000000000000000000000000000000000000000000000000000000000000000000000000000000000000000000000000000000000000000000000000000000000000000000000000000000000000000000000000000000000000000000000000000000000000000000000000000000000000000000000000000000000000000000000000000000000000000000000000000000000000000000000000000000000000000000000000000000000000000000000000000000000000000000000000000000000000000000000000000000000000000000000000000000000000000000000000000000000000000000000000000000000000000000000000000000000000000000000000000000000000000000000000000000000000000000000000000000000000000000000000000000000000000000000000000000000000000000000000000000000000000000000000000000000000000000000000000000000000000000000000000000000000000000000000000000000000000000000000000000000000000000000000000000000000000000000000000000000000000000000000000000000000000000000000000000000000000000000000000000000000000000000000000000000000000000000000000000000000000000000000000000000000000000000000000000000000000000000000000000000000000000000000000000000000000000000000000000000000000000000000000000000000000000000000000000000000000000000000000000000000000000000000000000000000000000000000000000000000000000000000000000000000000000000000000000000000000000000000000000000000000000000000000000000000000000000000000000000000000000000000000000000000000000000000000000000000000000000000000000000000000000000000000000000000000000000000000000000000000000000000000000000000000000000000000000000000000000000000000000000000000000000000000000000000000000000000000000000000000000000000000000000000000000000000000000000000000000000000000000000000000000000000000000000000000000000000000000000000000000000000000000000000000000000000000000000000000000000000000000000000000000000000000000000000000000000000000000000000000000000000000000000000000000000000000000000000000000000000000000000000000000000000000000000000000000000000000000000000000000000000000000000000000000000000000000000000000000000000000000000000000000000000000000000000000000000000000000000000000000000000000000000000000000000000000000000000000000000000000000000000000000000000000000000000000000000000000000000000000000000000000000000000000000000000000000000000000000000000000000000000000000000000000000000000000000000000000000000000000000000000000000000000000000000000000000000000000000000000000000000000000000000000000000000
#060951:001300005300000000000000
#060931:000000000000000000000000000000000000000000000000000000000000000000000000000000000000000000000000000000000000000000000000000000000000000000000000000000000000000000000000000000000000000000000000000000000000000000000000000000000000000000000000000000000000000000000000000000000000000000000000000000000000000000000000000000000000000000000000000000000000000000000000000000000000000000000000000000000000000000000000000000000000000000000000000000000000000000000000000000000000000000000000000000000000000000000000000000000000000000000000000000000000000000000000000000000000000000000000000000000000000000000000000000000000000000000000000000000000000000000000000000000000000000000000000000000000000000000000000000000000000000000000000000000000000000000000000000000000000000000000000000000000000000000000000000005300000000000000000000000000000000000000000000000000000000000000000000000000000000000000000000000000000000000000000000000000000000000000000000000000000000000000000000000000000000000000000000000000000000000000000000000000000000000000000000000000000000000000000000000000000000000000000000000000000000000000000000000000000000000000000000000000000000000000000000000000000000000000000000000000000000000000000000000000000000000000000000000000000000000000000000000000000000000000000000000000000000000000000000000000000000000000000000000000000000000000000000000000000000000000000000000000000000000000000000000000000000000000000000000000000000000000000000000000000000000000000000000000000000000000000000000000000000000000000000000000000000000000000000000000000000000000000000000000000000000000000000000000000000000000000000000000000000000000000000000000000000000000000000000000000000000000000000000000000000000000000000000000000000000000000000000000000000000053535353532300000000000000000000000000000000000000000000000000000000000000000000000000000000000000000000000000000000000000000000000000000000000000000000000000000000000000000000000000000000000000000000000000000000000000000000000000000000000000000000000000000000000000000000000000000000000000000000000000000000000000000000000000000000000000000000000000000000000000000000000000000000000000000000000000000000000000000000000000000000000000000000000000000000000000000000000000000000000000000000000000000000000000000000000000000000000000000000000000000000000000000000000000000000000000000000000000000000000000000000000000000000000000000000000000000000000000000000000000000000000000000000000000000000000000000000000000000000000000000000000000000000000000000000000000000000000000000000000000000000000000000000000000000000000000000000000000000000000000000000000000000000000000000000000000000000000000000000000000000000000000000000000000000000000000000000000000000000000000000000000000000000000000000000000000000000000000000000000000000000000000000000000000000000000000000000000000000000000000000000000000000000000000000000000000000000000000000000000000000000000000000000000000000000000000000000000000000000000000000000000000000000000000000000000000000000000000000000000000000000000000000000000000000000000000000000000000000000000000000000000000000000000000000000000000000000000000000000000000000000000000000000000000000000000000000000000000000000000000000000000000000000000000000000000000000000000000000000000000000000000000000000000000000000000000000000000000000000000000000000000000000000000000000000000000000000000000000000000000000000000000000000000000000000000000000000000000000000000000000000000000000000000000000000000000000000000000000000000000000000000000000000000000000000000000000000000000000000000000000000000000000000000000000000000000000000000000000000000000000000000000000000000000000000000000000000000000000000000000000000000000000000000000000000000000000000000000000000000000000000000000000000000000000000000000000000000000000000000000000000000000000000000000000000000000000000000000
