This file was generated by Ched 2.7.0.0.
#TITLE ""
#ARTIST ""
#DESIGNER ""
#DIFFICULTY 0
#PLAYLEVEL
#SONGID ""
#WAVE ""
#WAVEOFFSET 0
#JACKET ""
#REQUEST "ticks_per_beat 480"
#00002: 4
#BPM01: 124
#00008: 01
#TIL00: ""
#VOLUME: ""
#HISPEED 00
#MEASUREHS 00
#0011a:1414
#00214:1414
#00318:1414
#00412:1414
#0051a:14
#00514:00140000
#00518:0014
#00510:41
#00612:14
#00618:00140000
#00614:0014
#0071a:14
#00714:00140000
#00718:0014
#00712:00000014
#00818:14
#00814:00140000
#0081a:0014
#00914:14
#00918:00140000
#00912:0014
#01018:14
#01014:00140000
#0101a:0014
#01114:14
#01118:00140000
#01112:0014
#0111a:00000014
#01214:14
#01218:00140000
#01212:0014
#01318:0014
#01312:00000014
#01314:00140000
#0131a:24
#01310:41
#0141a:0000005400001400
#01414:00000024
#01417:54
#01418:0054000000000000
#01419:00540000
#0151a:00140000
#01518:00000014
#01514:00240000
#01612:14
#0161a:00140000
#01614:0014
#01714:0014
#0171a:00000014
#01718:00140000
#01812:0000006400001400
#01818:00000024
#01815:64
#01814:0064000000000000
#01813:00640000
#01914:00140000
#0191a:0014
#01912:00000014
#02018:00000014
#02114:00140000
#02118:00001414
#0211a:24
#02110:41
#02212:14
#02218:00140000
#02214:00001414
#0231a:14
#02314:00140000
#02318:00001414
#02412:14
#02416:00140000
#0241a:0014
#02518:00140000
#02514:0014
#0251a:00000014
#02512:24
#02612:14
#02618:00140000
#02614:0014
#0261a:00000014
#02712:14140000
#02718:00001414
#02814:14140000
#0281a:00001414
#02912:14
#02918:0016
#03012:16
#03018:0016
#03112:2414
#03110:41
#03218:1414
#03214:00140014
#0331a:2414
#03414:1414
#03418:00140014
#03512:2414
#03618:1414
#03614:00140000
#03714:14
#03718:00140000
#03712:0014
#0371a:00000014
#03912:14
#03914:0014
#0391f:11
#04012:14
#0411a:14
#04118:0014
#0421a:14
#04312:14
#0441a:14
#04618:14
#04514:14
#0581a:14
#05812:0014
#05918:14
#05914:0014
#0601a:1414
#06012:00140000
#06018:0000000000340000
#06017:0000000000003434
#04718:00140000
#04714:00001414
#04712:26
#0471f:21
#04710:00410000
#0481a:14
#04814:00140000
#04818:00001414
#04912:14
#04918:00140000
#04914:00001414
#0501a:14
#05016:00140000
#05012:0014
#05114:00140000
#05118:0014
#05112:00000014
#0511a:24
#0521a:14
#05214:00140000
#05218:0014
#05212:00000014
#0531a:14140000
#05314:00001414
#05418:14140000
#05412:00001414
#05514:00000014
#0551a:14
#05518:00140000
#05618:14
#05614:00140000
#05619:00002525
#05714:00150000
#05712:25
#03819:24
#03813:24
#03810:41
#06117:24
#0055a:14
#0135a:14
#01752:14
#01654:0054
#0215a:14
#02058:00000054
#02952:14
#03658:0054
#03952:54
#03954:0054
#04052:54
#0415a:64
#04158:0064
#0425a:64
#04352:54
#0445a:64
#04658:54
#04554:64
#04752:16
#05752:55
#05754:00250000
#06157:14
#0605a:0064
#0245a:0014
#05052:0014
#0555a:64
#05558:00240000
#0123a0:00000014
#0133a0:24
#016340:0014
#016320:00000034
#017320:24
#020380:1434343400005400
#0213a0:24
#036380:0014
#0363a0:00000024
#039320:14
#039340:0034
#040320:34
#040340:0024
#0413a0:14
#041380:0034
#0423a0:34
#042380:0024
#043320:14
#043340:0024
#0443a0:14
#044380:0024
#045340:14
#045320:0024
#046380:14
#0463a0:0024
#0553a0:1424
#055380:00540000
#057320:1525
#057340:00550000
#0603a0:0014
#060380:0000000000340000
#060370:0000000000003434
#061370:24
#014970:14
#0149a0:000000000000000000000000000000000000000000000000000000000000000000000000000000000000000000000000000000000000000000000000000000000000000000000000000000000000000000000000000000000000000000000000000000000000000000000000000000000000000000000000000000000000000000000000000000000000000000000000000000000000000000000000000000000000000000000000000000000000000000000000000000000000000000000000000000000000000000000000000000000000000000000000000000000000000000000000000000000000000000000000000000000000000000000000000000000000000000000000000000000000000000000000000000000000000000000000000000000000000000000000000000000000000000000000000000000000000000000000000000000000000000000000000000000000000000000000000000000000000000000000000000000000000000000000000000000000000000000000000000000000000000000000000000000000000000000000000000000000000000000000000000000000000000000000000000000000000000000000000000000000000000000000000000000000000000000000000000000000000000000000000000000000000000000000000000000000000000000000000000000000000000000000000000000000000000000000000000000000000000000000000000000000000000000000000000000000000000000000000000000000000000000000000000000000000000000000000000000000000000000000000000000000000000000000000000000000000000000000000000000000000000000000000000000000000000000000000000000000000000000000000000000000000000000000000000000000000000000000000000000000000000000000000000000000000000000000000000000000000000005454240000000000000000000000000000000000000000000000000000000000000000000000000000000000000000000000000000000000000000000000000000000000000000000000000000000000000000000000000000000000000000000000000000000000000000000000000000000000000000000000000000000000000000000000000000000000000000000000000000000000000000000000000000000000000000000000000000000000000000000000000000000000000000000000000000000000000000000000000000000000000000000000000000000000000000000000000000000000000000000000000000000000000000000000000000000000000000000000000000000000000000000000000000000000000000000000000000000000000000000000000000000000000000000000000000000000000000000000000000000000000000000000000000000000000000000000000000000000000000000000000000000000000000000000000000000000000000000000000000000000000000000000000000000000000000000000000000000000000000000000000000000000000000000000000000000000000000000000000000000000000000000000000000000000000000000000000000000000000000000000000000000000000000000000000000000000000000000000000000000000000000000000000000000000000000000000000000000000000000000000000000000000000000000000000000000000000000000000000000000000000000000000000000000000000000000000000000000000000000000000000000000000000000000000000000000000000000000000000000000000000000000000000000000000000000000000000000000000000000000000000000000000000000000000000000000000000000000000000000000000000000000000000000000000000000000000000000000000000000000000000000000000000000000000000000000000000000000000000000000000000000000000000000000000000000000000000000000000000000000000000000000000000000000000000000000000000000000000000000000000000000000000000000000000000000000000000000000000000000000000000000000000000000000000000000000000000000000000000000000000000000000000000000000000000000000000000000000000000000000000000000000000000000000000000000000000000000000000000000000000000000000000000000000000000000000000000000000000000000000000000000000000000000000000000000000000000000000000000000000000000000000000000000000000000000000000000000000000000000000000000000000000000000000000000000000000000000000000000000000000000000000000000000000000000000000000000000000000000000000000000000000000000000000000000000000000000000000000000000000000000000000000000000000000000000000000000000000000000000000000000000000000000000000000000000000000000000000000000000000000000000000000000000000000000000000000000000000000000000000000
#018950:14
#018920:000000000000000000000000000000000000000000000000000000000000000000000000000000000000000000000000000000000000000000000000000000000000000000000000000000000000000000000000000000000000000000000000000000000000000000000000000000000000000000000000000000000000000000000000000000000000000000000000000000000000000000000000000000000000000000000000000000000000000000000000000000000000000000000000000000000000000000000000000000000000000000000000000000000000000000000000000000000000000000000000000000000000000000000000000000000000000000000000000000000000000000000000000000000000000000000000000000000000000000000000000000000000000000000000000000000000000000000000000000000000000000000000000000000000000000000000000000000000000000000000000000000000000000000000000000000000000000000000000000000000000000000000000000000000000000000000000000000000000000000000000000000000000000000000000000000000000000000000000000000000000000000000000000000000000000000000000000000000000000000000000000000000000000000000000000000000000000000000000000000000000000000000000000000000000000000000000000000000000000000000000000000000000000000000000000000000000000000000000000000000000000000000000000000000000000000000000000000000000000000000000000000000000000000000000000000000000000000000000000000000000000000000000000000000000000000000000000000000000000000000000000000000000000000000000000000000000000000000000000000000000000000000000000000000000000000000000000000000000000005454240000000000000000000000000000000000000000000000000000000000000000000000000000000000000000000000000000000000000000000000000000000000000000000000000000000000000000000000000000000000000000000000000000000000000000000000000000000000000000000000000000000000000000000000000000000000000000000000000000000000000000000000000000000000000000000000000000000000000000000000000000000000000000000000000000000000000000000000000000000000000000000000000000000000000000000000000000000000000000000000000000000000000000000000000000000000000000000000000000000000000000000000000000000000000000000000000000000000000000000000000000000000000000000000000000000000000000000000000000000000000000000000000000000000000000000000000000000000000000000000000000000000000000000000000000000000000000000000000000000000000000000000000000000000000000000000000000000000000000000000000000000000000000000000000000000000000000000000000000000000000000000000000000000000000000000000000000000000000000000000000000000000000000000000000000000000000000000000000000000000000000000000000000000000000000000000000000000000000000000000000000000000000000000000000000000000000000000000000000000000000000000000000000000000000000000000000000000000000000000000000000000000000000000000000000000000000000000000000000000000000000000000000000000000000000000000000000000000000000000000000000000000000000000000000000000000000000000000000000000000000000000000000000000000000000000000000000000000000000000000000000000000000000000000000000000000000000000000000000000000000000000000000000000000000000000000000000000000000000000000000000000000000000000000000000000000000000000000000000000000000000000000000000000000000000000000000000000000000000000000000000000000000000000000000000000000000000000000000000000000000000000000000000000000000000000000000000000000000000000000000000000000000000000000000000000000000000000000000000000000000000000000000000000000000000000000000000000000000000000000000000000000000000000000000000000000000000000000000000000000000000000000000000000000000000000000000000000000000000000000000000000000000000000000000000000000000000000000000000000000000000000000000000000000000000000000000000000000000000000000000000000000000000000000000000000000000000000000000000000000000000000000000000000000000000000000000000000000000000000000000000000000000000000000000000000000000000000000000000000000000000000000000000000000000000000000000000000000000000000000
