This file was generated by Ched 2.7.0.0.
#TITLE ""
#ARTIST ""
#DESIGNER ""
#DIFFICULTY 0
#PLAYLEVEL
#SONGID ""
#WAVE ""
#WAVEOFFSET 0
#JACKET ""
#REQUEST "ticks_per_beat 480"
#00002: 4
#BPM01: 140
#00008: 01
#TIL00: ""
#VOLUME: ""
#HISPEED 00
#MEASUREHS 00
#0041a:14
#00410:41
#0051a:14
#00818:14
#00914:14
#01018:14
#01114:14
#0121a:14
#01312:14
#0141a:14
#0241a:14
#02410:41
#0251a:14
#02614:14
#02714:14
#02818:14
#02918:14
#03012:14
#0301a:0014
#03212:0016
#03218:26
#03210:41
#03318:16
#03312:0016
#03418:16
#03412:0016
#03612:16
#03618:0016
#03712:16
#03718:0016
#03812:16
#03818:0016
#0401a:14
#04114:14
#0411f:11
#04218:14
#04312:14
#04818:2616
#0481f:21
#04912:1616
#04910:41
#05018:1616
#05218:16
#05212:0016
#05318:1616
#05412:16
#05418:0016
#05512:1616
#05618:2616
#05712:1616
#05818:1616
#06018:1616
#06112:16
#06118:0016
#06212:16
#06218:0016
#06514:0014
#0651a:24
#06510:41
#0661a:14
#06614:0014
#06718:14
#06712:0014
#06818:14
#06812:0014
#0691a:14
#06914:0014
#07018:14
#07012:0014
#07313:14
#07319:14
#00314:24
#00612:26
#07118:26
#01610:41
#0003a0:1424
#001320:1424
#002380:1424
#003340:1424
#006320:16363636
#007320:26
#015320:1424
#0163a0:14
#016380:0034
#017380:24
#018320:14
#018340:0034
#019340:24
#020380:14
#0203a0:0034
#0213a0:24
#022340:14
#022320:0034
#023320:24
#031340:1424
#035380:1626
#039320:1626
#0443a0:1434
#0453a0:3424
#046320:1434
#047320:3424
#051320:1626
#059320:1626
#063320:1636
#064320:26
#071380:16363636
#072380:26
