This file was generated by Ched 2.7.0.0.
#TITLE ""
#ARTIST ""
#DESIGNER ""
#DIFFICULTY 0
#PLAYLEVEL
#SONGID ""
#WAVE ""
#WAVEOFFSET 0
#JACKET ""
#REQUEST "ticks_per_beat 480"
#00002: 4
#BPM01: 184
#00008: 01
#TIL00: ""
#VOLUME: ""
#HISPEED 00
#MEASUREHS 00
#0701f:0011
#09012:0016
#09018:16
#08818:1616
#08712:1616
#08618:0016
#08612:16
#08518:1616
#08412:0016
#08418:26
#08312:0016
#08318:16
#08212:0016
#08218:16
#08112:1616
#08018:0016
#0801f:21
#08012:26
#08010:0041
#06912:0014
#06910:0041
#0661a:14
#06514:14
#06414:14
#06318:14
#06218:14
#06112:14
#06012:14
#0591a:14
#05814:14
#05718:14
#05612:14
#04712:0016
#04718:16
#04612:0016
#04618:16
#04512:1616
#04418:0016
#04412:26
#04318:0016
#04312:16
#04218:0016
#04212:16
#04118:1616
#04012:0016
#04018:26
#04010:41
#03718:16
#03612:16
#03518:16
#03412:16
#03318:16
#01918:14
#01812:14
#01514:14
#0141a:14
#01018:14
#07614:0014
#07518:0014
#07414:0014
#0551a:14
#05414:14
#05318:14
#03212:16
#03118:16
#0251a:14
#0221a:14
#01312:14
#01212:14
#01118:14
#00914:14
#00814:14
#0071a:14
#08912:2626
#05212:24
#05210:41
#02412:26
#02318:0026
#02312:26
#0061a:24
#02712:34
#02812:34
#02912:34
#07119:0034
#0721a:0034
#01610:41
#03010:41
#000330:000000000000000000000000000000000000000000000000000000140000000000000000000000000000000000000034
#001330:00000000000000000000000000340000
#002330:000000000000000000000000000000000000000000000000000000000000003400000000000000000000000000000000
#003330:000000000000000000000000000000000000000000000034000000000000000000000000000000000000000000000000
#004330:000000000000000000000000000000000000003400000000000000000000000000000000000000000000000000000000
#005320:0026
#0163a0:14
#0173a0:24
#020320:14
#021320:24
#026320:14
#027320:34
#028320:34
#029320:34
#030320:26
#038320:16
#039320:26
#048380:16
#0513a0:24
#0673a0:1400000000000034
#0683a0:0024
#070380:0014
#071390:0034
#0723a0:0034
#0733a0:0024
#077390:0014
#078380:0000000000000036
#079380:0026
#091380:1600000036000036
#092380:0036000000260000
