This file was generated by Ched 2.7.0.0.
#TITLE ""
#ARTIST ""
#DESIGNER ""
#DIFFICULTY 0
#PLAYLEVEL
#SONGID ""
#WAVE ""
#WAVEOFFSET 0
#JACKET ""
#REQUEST "ticks_per_beat 480"
#00002: 4
#BPM01: 184
#00008: 01
#TIL00: ""
#VOLUME: ""
#HISPEED 00
#MEASUREHS 00
#01614:0014000000000000
#01618:1300001400000000
#01612:0000000000140000
#0161a:0000000000000014
#01610:41
#01712:0000000000140000
#0171a:00000014
#01715:0023002300000000
#01718:00232300
#0211a:0000000000140014
#02118:0013001300000000
#02115:00131300
#02112:00000014
#02315:13
#0231b:0013000000000000
#02318:0014
#02312:0000002400140000
#02319:0000000000000025
#02413:15
#02419:0015000000000000
#02414:0000000000000024
#02514:00000014
#02518:2400000000000014
#02517:0000001400000000
#02512:0024000000000000
#02612:14
#02615:0014
#02812:15
#02815:0015
#02918:16
#02915:0016
#0271a:14
#02717:0014
#03112:000014
#03117:000000000014
#0311a:14
#03116:0025
#03313:001500
#03315:000015
#03312:000000000015
#03316:001500000000
#03319:25
#03318:0025
#03812:16
#03815:0000001600000000
#03913:0015001500000000
#03918:15150000
#0411a:14
#04115:00000015
#04116:00140000
#04119:0015
#04212:1414
#04218:0014000000005454
#0421a:0000545400140000
#04219:00000054000000000000005400000000
#04312:16
#04317:00160000
#04313:0016
#04318:00000016
#04016:0015000000000000
#04014:0000000014000014
#0401a:0000000000140000
#04019:25000000000000000000005400000000
#04010:41
#04018:00000054
#05118:0000000000140014
#05114:00000014
#05112:0024
#05218:00140014
#05214:0014
#05212:24
#05210:41
#05319:00140014
#05315:0014
#05312:26
#0541a:00140014
#05416:0014
#05412:26
#0551a:00140000
#05512:26000014
#05516:0014
#00614:00140000
#0061a:24
#00818:00140000
#00812:14
#01012:00140000
#01017:00140000
#0101a:2414
#01015:2414
#0121a:00140000
#01215:00140000
#01212:1414
#01217:1414
#01418:00130013
#01415:0000001300130013
#0141b:0013
#01412:0013000000000000
#0141a:24
#01518:0013000000000000
#01512:00130000
#0151b:0000001300000000
#01515:0013
#03012:14
#0301a:000014
#03015:000000240014
#03010:41
#03212:14
#0321a:000014
#03215:000000260014
#03718:001500
#03716:000015
#03719:000000000015
#03715:001500000000
#03712:25
#03713:0025
#04512:1415
#04516:00140015
#0461a:1414
#04614:0014000000005454
#04612:0000545400140000
#04613:00000054000000000000005400000000
#04415:0015000000000000
#04418:0000000014000014
#04412:2500000000140000
#04413:00000000000000000000005400000000
#04414:00000054
#04817:17
#04819:00000000000000000000001300000000
#04818:00000015
#04919:00000013000000000000001300000000
#04918:00150015
#05019:00000013000000000000001300000000
#05018:00150015
#0601b:0013
#06018:00000013
#06012:0000140000000013
#06015:0000000000130000
#0601a:24
#06118:0013001300000023
#06115:00130023
#06112:0023
#0611b:0000000000230000
#06212:2413
#06215:00000013
#0621b:0000000000000013
#0621a:00140000
#06218:0000000000130000
#06418:0000000013000014
#06412:00140013
#06415:0000000000130000
#0641a:24
#06515:0013000014000000
#06518:00130000
#0651b:0000001300000000
#06512:0000000000343400
#06315:0013001300000023
#06318:00130023
#0631b:0023
#06312:0000000000230000
#06615:0013
#0661b:00000013
#06614:0000000000000014
#0661a:00140000
#06618:0000000000130000
#06612:24
#06718:0013000000000000
#06715:00130000
#06712:0000001300000000
#06717:0014
#0671a:0000000000343400
#06812:0013
#0681a:00000014
#06815:00000014
#06912:13
#06915:00140000
#0691a:00140000
#06918:00002424
#06914:0000000000240024
#06910:0041
#07019:0012
#0701f:0011
#07119:12
#07115:0022
#07117:00000022
#07215:0012
#07219:22
#07315:12
#07319:0022
#07317:00000022
#07412:00001414
#07418:00260000
#07415:22
#0751a:14140000
#07517:00001414
#07512:00002424
#07615:14140014
#0761a:24140014
#07612:0014
#07617:0014
#07717:14
#07712:14
#0771a:00140000
#07716:0000001400000000
#07918:0016001600002600
#07912:00161600
#08116:00000015
#08112:2525
#08119:00250000
#0821a:1424
#08214:0014000000240000
#08218:00140024
#08212:0000001400000024
#08018:00000000000000000000001400001400
#08014:0000000000141400
#08012:24
#08016:00240000
#0801a:0024
#0801f:21
#08010:0041
#08515:00000015
#08519:2525
#08512:00250000
#08612:1424
#08618:0014000000240000
#08614:00140024
#0861a:0000001400000024
#08414:00000000000000000000001400001400
#08418:0000000000141400
#0841a:24
#08416:00240000
#08412:0024
#08715:0014000000000000
#08717:00000024
#08712:0000343400000025
#08817:0014000000000000
#08814:00000024
#08818:0000000000000026
#0881a:0000343400000000
#09012:00000000140000000000000000000054
#09017:00141400
#09015:00000014
#09018:00000000000000000054000000000000
#09019:0000000000540000
#0901a:00000000000000000000005400000000
#09014:00000000000000000000000000540000
#09013:0000000000000054
#0911a:1400000000240000
#09116:00140000
#09113:0000000000000014
#09112:0024
#09119:0000000000000024
#02018:0014000000000000
#02014:0000001400000000
#0201a:0000000000140000
#02012:0000000000000014
#02015:13
#01815:00130013
#01818:0000001300130013
#01812:2413
#0181b:0013000000000000
#02214:14
#02218:0014000000000000
#0221b:0000000000000023
#01915:0013000000000000
#0191b:00130000
#01912:0000001300000000
#01918:0013
#0351a:000014
#03515:000000250014
#03512:14
#0341a:14
#03412:000014
#03417:000000240014
#0361a:14
#03612:000014
#03617:000000000014
#03615:0026
#05614:00140014
#05618:2614
#05713:00140014
#05717:0014
#05718:26
#05812:00140014
#05816:0014
#05818:26
#05912:00140000
#05914:0000000000140000
#05918:2614
#05919:00000014
#05915:0000000000000014
#00712:00240000
#00714:0024
#00718:00000024
#0071a:00240000
#0471a:0024000000000000
#04714:00240000
#04718:0000002400000000
#04712:0024
#04716:00000000000000000000343400000000
#00515:00000026
#00516:0000000000340000
#00514:00000000000000000034000000000000
#00912:00240000
#0091a:00240000
#00918:0024
#00914:00000024
#01117:00242400
#01112:00242400
#0111a:00000024
#01115:00000024
#01315:00242400
#0131a:00242400
#01312:00000024
#01317:00000024
#07814:0000000000000028
#08318:26
#08313:00260000
#08317:0026
#08312:00000026
#08919:00000024
#08912:0000343400000027
#08915:0024000000000000
#09218:0024000000640000
#09214:0000000000540000
#09213:00000000000000000000000000000000000000000000000000000000000000000000000000000000005400000000000000000000000000000000000000000000
#09212:0000000000000000000000000000000000000000005400000000000000000000
#09219:00000000000000000000000000000000000000000000000000000000000000000000000000000000006400000000000000000000000000000000000000000000
#0921a:0000000000000000000000000000000000000000006400000000000000000000
#00416:000000000000000000000000000000000000005400000000000000000000000000000000000000000000000000000000
#01654:0034000000000000
#01658:0000004400000000
#01652:0000000000340000
#0165a:0000000000000044
#00657:0000000000000014
#0145a:14
#01455:0000000000000013
#02652:64
#02655:0024
#02852:65
#02855:0025
#02958:56
#02955:0026
#0275a:54
#02757:0024
#03852:56
#03855:0000002600000000
#04155:00000025
#0415a:64
#04156:00640000
#04159:0065
#04352:16
#04357:00160000
#04353:0016
#04358:00000016
#04056:0025000000000000
#04059:55150000
#04752:0054
#04755:00000016
#05252:14
#00555:00000016
#00855:0000000000000014
#01052:0000000000000014
#01057:0000000000000014
#0125a:0000000000000014
#01255:0000000000000014
#02459:0055000000000000
#02557:0000006400000000
#03055:0014
#03052:54
#0315a:64
#03156:0015
#03252:54
#03255:0016
#04552:5455
#04556:00540025
#04455:0025000000000000
#04452:65150000
#04654:0000000000000014
#04857:67
#04859:00000000000000000000002300000000
#04858:00000065
#04959:00000023000000000000002300000000
#04958:00650065
#05059:00000023000000000000002300000000
#05058:00650065
#06052:0000000000000013
#0605a:14
#0625b:0000000000000013
#06252:14
#06458:0000000000000014
#0645a:14
#06652:14
#06654:0000000000000014
#06555:0054
#06757:0064
#0675a:0000000000000014
#07458:00160000
#07756:0000005400000000
#07854:0000000000000018
#07958:00000016
#08156:00000025
#08152:1555
#08159:00150000
#08358:16
#08353:00160000
#08357:0016
#08352:00000016
#08555:00000025
#08559:1565
#08552:00150000
#0865a:0000000000000014
#08752:0000000000000015
#08755:0054000000000000
#08857:0064000000000000
#08858:0000000000000016
#08952:0000000000000017
#08955:0054000000000000
#02058:0044000000000000
#02054:0000003400000000
#0205a:0000000000440000
#02052:0000000000000034
#01858:0000000000000013
#01852:14
#02254:64
#02258:0064000000000000
#02252:0014
#0225a:0014
#01555:0053
#01958:0063
#0345a:64
#03457:0014
#03552:54
#03555:0015
#0365a:64
#03655:0016
#000360:00000000000000000014000000000000
#000370:000000000000000000000052
#000350:000000000000000000000000000000000000000000000000000000000000000000000000000000000000000000000036
#001370:00000052
#001350:00000000000000000000000000360000
#002370:000000000000005200000000
#002350:000000000000000000000000000000000000000000000000000000000000003600000000000000000000000000000000
#003370:000000000052000000000000
#003360:000000000000000000000000000000000000000000000034000000000000000000000000000000000000000000000000
#004370:005200
#004360:000000000000000000000000000000000000002400000000000000000000000000000000000000000000000000000000
#005320:0014
#005340:00000000000000000034000000000000
#005360:0000000000340000
#005350:00000000000000000000003626000000
#0063a0:0014
#006370:0000000000340024
#007340:0000000014240000
#007380:0000000000001424
#008320:0014
#008350:0000000000340024
#009380:0000000014240000
#009340:0000000000001424
#010320:0000000000140024
#010371:0000000000140024
#011321:0000000014240000
#011370:0000000014240000
#0113a0:0000000000001424
#011351:0000000000001424
#0123a1:0000000000140024
#012350:0000000000140024
#0133a0:0000000014240000
#013351:0000000014240000
#013321:0000000000001424
#013370:0000000000001424
#015350:0013
#015320:00000023
#019380:0013
#0193b0:00000023
#022340:14
#022320:0024
#022381:0014000000000000
#0223a1:0024
#024391:0015000000000000
#024361:0025
#025371:0000001400000000
#0253a1:0000000000240000
#026321:14
#026351:0054
#027321:24
#0273a0:14
#027370:0054
#0283a0:24
#028321:15
#028351:0055
#029321:25
#029380:16
#029350:0056
#030380:26
#030321:14
#030351:0024
#0313a1:14
#031361:0025
#032321:14
#032351:0026
#0343a1:14
#034371:0024
#035321:14
#035351:0025
#0363a1:14
#036351:0026
#038321:16000026
#038351:0000005600000000
#040391:15250000
#040361:0055000000000000
#0413a1:14
#041361:00340000
#041391:0035
#041351:00000055
#042391:25
#044321:15250000
#044351:0055000000000000
#045321:1435
#045361:00340055
#046321:25
#047321:0014
#047361:00000000000000000000343400000000
#047351:00000026
#048371:17
#048391:00000000000000000000005300000000
#048381:00000035
#049391:00000053000000000000005300000000
#049381:00350035
#050391:00000053000000000000005300000000
#050381:00350035
#051391:00230000
#065351:0014
#065321:0000000000343434
#066321:24
#067371:0014
#0673a1:0000000000343424
#077361:0000001400000000
#078341:0000000000003828
#081321:0015
#081361:00000055
#082321:25
#085391:0015
#085351:00000055
#086391:25
#087351:0014000000000000
#087321:0000343424000000
#088371:0014000000000000
#0883a1:0000343424000000
#089351:0014000000000000
#089321:0000343424000000
#092381:0014000000240000
#092340:0014000000240000
#004960:000000000000000000000000000000000000001400000000000000000000000000000000000000000000000000000000
#005970:22
#0409a0:0000000000140000
#040980:000000000000000000000000000000000000000000000000000000000000000000000000000000000000000000000000000000000000000000000000000000000000000000000000000000000000000000000000000000000000000000000000000000000000000000000000000000000000000000000000000000000000000000000000000000000000000000000000000000000000000000000000000000000000000000000000000000000000000000000000000000000000000000000000000000000000000000000000000000000000000000000000000000000000000000000000000000000000000000000000000000000000000000000000000000000000000000000000000000000000000000000000000000000000000000000000000000000000000000000000000000000000000000000000000000000000000000000000000000000000000000000000000000000000000000000000000000000000000000000000000000000000000000000000000000000000000000000000000000000000000000000000000000000000000000000000000000000000000000000000000000000000000000000000000000000000000000000000000000000000000000000000000000000000000000000000000000000000000000000000000000000000000000000000000000000000000000000000000000000000000000000000000000000000000000000000000000000000000000000000000000000000000000000000000000000000000000000000000000000000000000000000000000000000000000000000000000000000000000000000000000000000000000000000000000000000000000000000000000000000000000000000000000000000000000000000000000000000000000000000000000000000000000000000000000000000000000000000000000000000000000000000000000000000000000000000000000000000000000000000000000000000000000000000000000000000000000000000000000000000000000000000000000000000000000000000000000000000000000000000000000000000000000000000000000000000000000000000000000000000000000000000000000000000000000000000000000000000000000000000000000000000000000000000000000000000000000000000000000000000000000000000000000000000000000000000000000000000000000000000000000000000000000000000000000000000000000000000000000000000000000000000000000000000000000000000000000000000000000000000000000000000000000000000000000000000000000000000000000000000000000000000000000000000000000000000000000000000000000000000000000000000000000000000000000000000000000000000000000000000000000000000000000000000000000000000000000000000000000000000000000000000000000000000000000000000000000000000000000000000000000000000000000000000000000000000000000000000000000000000000000000000000000000000000000000000000000000000000000000000000000000000000000000000000000000000000000000000000000000000000000000000000000000000000000000000000000000000000000000000000000000000000000000000000000000000000000000000000000000000000000000000000000000000000000000000000000000000000000000000000000000000000000000000000000000000000000000000000000000000000000000000000000000000000000000000000000000000000000000000000000000000000000000000000000000000000000000000000000000000000000000000000000000000000000000000000000000000000000000000000000000000000000000000000000000000000000000000000000005454240000000000000000000000000000000000000000000000000000000000000000000000000000000000000000000000000000000000000000000000000000000000000000000000000000000000000000000000000000000000000000000000000000000000000000000000000000000000000000000000000000000000000000000000000000000000000000000000000000000000000000000000000000000000000000000000000000000000000000000000000000000000000000000000000000000000000000000000000000000000000000000000000000000000000000000000000000000000000000000000000000000000000000000000000000000000000000000000000000000000000000000000000000000000000000000000000000000000000000000000000000000000000000000000000000000000000000000000000000000000000000000000000000000000000000000000000000000000000000000000000000000000000000000000000000000000000000000000000000000000000000000000000000000000000000000000000000000000000000000000000000000000000000000000000000000000000000000000000000000000000000000000000000000000000000000000000000000000000000000000
#042980:0014000000000000
#0429a0:000000000000000000000000000000000000000000000000000000000000000000000000000000000000000000000000000000000000000000000000000000000000000000000000000000000000000000000000000000000000000000000000000000000000000000000000000000000000000000000000000000000000000000000000000000000000000000000000000000000000000000000000000000000000000000000000000000000000000000000000000000000000000000000000000000000000000000000000000000000000000000000000000000000000000000000000000000000000000000000000000000000000000000000000000000000000000000000000000000000000000000000000000000000000000000000000000000000000000000000000000000000000000000000000000000000000000000000000000000000000000000000000000000000000000000000000000000000000000000000000000000000000000000000000000000000000000000000000000000000000000000000000000000000000000000000000000000000000000000000000000000000000000000000000000000000000000000000000000000000000000000000000000000000000000000000000000000000000000000000000540000000000000000000000000000000000000000000000000000000000000000000000000000000000000000000000000000000000000000000000000000000000000000000000000000000000000000000000000000000000000000000000000000000000000000000000000000000000000000000000000000000000000000000000000000000000000000000000000000000000000000000000000000000000000000000000000000000000000000000000000000000000000000000000000000000000000000000000000000000000000000000000000000000000000000000000000000000000000000545454240000000000000000000000000000000000000000000000000000000000000000000000000000000000000000000000000000000000000000000000000000000000000000000000000000000000000000000000000000000000000000000000000000000000000000000000000000000000000000000000000000000000000000000000000000000000000000000000000000000000000000000000000000000000000000000000000000000000000000000000000000000000000000000000000000000000000000000000000000000000000000000000000000000000000000000000000000000000000000000000000000000000000000000000000000000000000000000000000000000000000000000000000000000000000000000000000000000000000000000000000000000000000000000000000000000000000000000000000000000000000000000000000000000000000000000000000000000000000000000000000000000000000000000000000000000000000000000000000000000000000000000000000000000000000000000000000000000000000000000000000000000000000000000000000000000000000000000000000000000000000000000000000000000000000000000000000000000000000000000000000000000000000000000000000000000000000000000000000000000000000000000000000000000000000000000000000000000000000000000000000000000000000000000000000000000000000000000000000000000000000000000000000000000000000000000000000000000000000000000000000000000000000000000000000000000000000000000000000000000000000000000000000000000000000000000000000000000000000000000000000000000000000000000000000000000000000000000000000000000000000000000000000000000000000000000000000000000000000000000000000000000000000000000000000000000000000000000000000000000000000000000000000000000000000000000000000000000000000000000000000000000000000000000000000000000000000000000000000000000000000000000000000000000000000000000000000000000000000000000000000000000000000000000000000000000000000000000000000000000000000000000000000000000000000000000000000000000000000000000000000000000000000000000000000000000000000000000000000000000000000000000000000000000000000000000000000000000000000000000000000000000000000000000000000000000000000000000000000000000000000000000000000000000000000000000000000000000000000000000000000000000000000000000000000000000000000000000000000000000000000000000000000000000000000000000000000000000000000000000000000000000000000000000000000000000000000000000000000000000000000000000000000000000000000000000000000000000000000000000000000000000000000000000000000000000000000000000000000000000000000000000000000000000000000000000000000000000000000000000000
#0429a0:0000000000140000
#042980:000000000000000000000000000000000000000000000000000000000000000000000000000000000000000000000000000000000000000000000000000000000000000000000000000000000000000000000000000000000000000000000000000000000000000000000000000000000000000000000000000000000000000000000000000000000000000000000000000000000000000000000000000000000000000000000000000000000000000000000000000000000000000000000000000000000000000000000000000000000000000000000000000000000000000000000000000000000000000000000000000000000000000000000000000000000000000000000000000000000000000000000000000000000000000000000000000000000000000000000000000000000000000000000000000000000000000000000000000000000000000000000000000000000000000000000000000000000000000000000000000000000000000000000000000000000000000000000000000000000000000000000000000000000000000000000000000000000000000000000000000000000000000000000000000000000000000000000000000000000000000000000000000000000000000000000000000000000000000000000000000000000000000000000000000000000000000000000000000000000000000000000000000000000000000000000000000000000000000000000000000000000000000000000000000000000000000000000000000000000000000000000000000000000000000000000000000000000000000000000000000000000000000000000000000000000000000000000000000000000000000000000000000000000000000000000000000000000000000000000000000000000000000000000000000000000000000000000000000000000000000000000000000000000000000000000000000000000000000000000000000000000000000000000000000000000000000000000000000000000000000000000000000000000000000000000000000000000000000000000000000000000000000000000000000000000000000000000000000000000000000000000000000000000000000000000000000000000000000000000000000000000000000000000000000000000000000000000000000000000000000000000000000000000000000000000000000000000000000000000000000000000000000000000000000000000000000000000000000000000000000000000000000000000000000000000000000000000000000000000000000000000000000000000000000000000000000000000000000000000000000000000000000000000000000000000000000000000000000000000000000000000000000000000000000000000000000000000000000000000000000000000000000000000000000000000000000000000000000000000000000000000000000000000000000000000000000000000000000000000000000000000000000000000000000000000000000000000000000000000000000000000000000000000000000000000000000000000000000000000000000000000000000000000000000000000000000000000000000000000000000000000000000000000000000000000000000000000000000000000000000000000000000000000000000000000000000000000000000000000000000000000000000000000000000000000000000000000000000000000000000000000000000000000000000000000000000000000000000000000000000000000000000000000000000000000000000000000000000000000000000000000000000000000000000000000000000000000000000000000000000000000000000000000000000000000000000000000000000000000000000000000000000000000000000000000000000000000000000000000000540000000000000000000000000000000000000000000000000000000000000000000000000000000000000000000000000000000000000000000000000000000000000000000000000000000000000000000000000000000000000000000000000000000000000000000000000000000000000000000000000000000000000000000000000000000000000000000000000000000000000000000000000000000000000000000000000000000000000000000000000000000000000000000000000000000000000000000000000000000000000000000000000000000000000000000000000000000000000000545454240000000000000000000000000000000000000000000000000000000000000000000000000000000000000000000000000000000000000000000000000000000000000000000000000000000000000000000000000000000000000000000000000000000000000000000000000000000000000000000000000000000000000000000000000000000000000000000000000000000000000000000000000000000000000000000000000000000000000000000000000000000000000000000000000000000000000000000000000000000000000000000000000000000000000000000000000000000000000000000000
#044920:0000000000140000
#044940:000000000000000000000000000000000000000000000000000000000000000000000000000000000000000000000000000000000000000000000000000000000000000000000000000000000000000000000000000000000000000000000000000000000000000000000000000000000000000000000000000000000000000000000000000000000000000000000000000000000000000000000000000000000000000000000000000000000000000000000000000000000000000000000000000000000000000000000000000000000000000000000000000000000000000000000000000000000000000000000000000000000000000000000000000000000000000000000000000000000000000000000000000000000000000000000000000000000000000000000000000000000000000000000000000000000000000000000000000000000000000000000000000000000000000000000000000000000000000000000000000000000000000000000000000000000000000000000000000000000000000000000000000000000000000000000000000000000000000000000000000000000000000000000000000000000000000000000000000000000000000000000000000000000000000000000000000000000000000000000000000000000000000000000000000000000000000000000000000000000000000000000000000000000000000000000000000000000000000000000000000000000000000000000000000000000000000000000000000000000000000000000000000000000000000000000000000000000000000000000000000000000000000000000000000000000000000000000000000000000000000000000000000000000000000000000000000000000000000000000000000000000000000000000000000000000000000000000000000000000000000000000000000000000000000000000000000000000000000000000000000000000000000000000000000000000000000000000000000000000000000000000000000000000000000000000000000000000000000000000000000000000000000000000000000000000000000000000000000000000000000000000000000000000000000000000000000000000000000000000000000000000000000000000000000000000000000000000000000000000000000000000000000000000000000000000000000000000000000000000000000000000000000000000000000000000000000000000000000000000000000000000000000000000000000000000000000000000000000000000000000000000000000000000000000000000000000000000000000000000000000000000000000000000000000000000000000000000000000000000000000000000000000000000000000000000000000000000000000000000000000000000000000000000000000000000000000000000000000000000000000000000000000000000000000000000000000000000000000000000000000000000000000000000000000000000000000000000000000000000000000000000000000000000000000000000000000000000000000000000000000000000000000000000000000000000000000000000000000000000000000000000000000000000000000000000000000000000000000000000000000000000000000000000000000000000000000000000000000000000000000000000000000000000000000000000000000000000000000000000000000000000000000000000000000000000000000000000000000000000000000000000000000000000000000000000000000000000000000000000000000000000000000000000000000000000000000000000000000000000000000000000000000000000000000000000000000000000000000000000000000000000000000000000000000000000000000000000000000000005454240000000000000000000000000000000000000000000000000000000000000000000000000000000000000000000000000000000000000000000000000000000000000000000000000000000000000000000000000000000000000000000000000000000000000000000000000000000000000000000000000000000000000000000000000000000000000000000000000000000000000000000000000000000000000000000000000000000000000000000000000000000000000000000000000000000000000000000000000000000000000000000000000000000000000000000000000000000000000000000000000000000000000000000000000000000000000000000000000000000000000000000000000000000000000000000000000000000000000000000000000000000000000000000000000000000000000000000000000000000000000000000000000000000000000000000000000000000000000000000000000000000000000000000000000000000000000000000000000000000000000000000000000000000000000000000000000000000000000000000000000000000000000000000000000000000000000000000000000000000000000000000000000000000000000000000000000000000000000000000000
#046940:0014000000000000
#046920:000000000000000000000000000000000000000000000000000000000000000000000000000000000000000000000000000000000000000000000000000000000000000000000000000000000000000000000000000000000000000000000000000000000000000000000000000000000000000000000000000000000000000000000000000000000000000000000000000000000000000000000000000000000000000000000000000000000000000000000000000000000000000000000000000000000000000000000000000000000000000000000000000000000000000000000000000000000000000000000000000000000000000000000000000000000000000000000000000000000000000000000000000000000000000000000000000000000000000000000000000000000000000000000000000000000000000000000000000000000000000000000000000000000000000000000000000000000000000000000000000000000000000000000000000000000000000000000000000000000000000000000000000000000000000000000000000000000000000000000000000000000000000000000000000000000000000000000000000000000000000000000000000000000000000000000000000000000000000000000000540000000000000000000000000000000000000000000000000000000000000000000000000000000000000000000000000000000000000000000000000000000000000000000000000000000000000000000000000000000000000000000000000000000000000000000000000000000000000000000000000000000000000000000000000000000000000000000000000000000000000000000000000000000000000000000000000000000000000000000000000000000000000000000000000000000000000000000000000000000000000000000000000000000000000000000000000000000000000000545454240000000000000000000000000000000000000000000000000000000000000000000000000000000000000000000000000000000000000000000000000000000000000000000000000000000000000000000000000000000000000000000000000000000000000000000000000000000000000000000000000000000000000000000000000000000000000000000000000000000000000000000000000000000000000000000000000000000000000000000000000000000000000000000000000000000000000000000000000000000000000000000000000000000000000000000000000000000000000000000000000000000000000000000000000000000000000000000000000000000000000000000000000000000000000000000000000000000000000000000000000000000000000000000000000000000000000000000000000000000000000000000000000000000000000000000000000000000000000000000000000000000000000000000000000000000000000000000000000000000000000000000000000000000000000000000000000000000000000000000000000000000000000000000000000000000000000000000000000000000000000000000000000000000000000000000000000000000000000000000000000000000000000000000000000000000000000000000000000000000000000000000000000000000000000000000000000000000000000000000000000000000000000000000000000000000000000000000000000000000000000000000000000000000000000000000000000000000000000000000000000000000000000000000000000000000000000000000000000000000000000000000000000000000000000000000000000000000000000000000000000000000000000000000000000000000000000000000000000000000000000000000000000000000000000000000000000000000000000000000000000000000000000000000000000000000000000000000000000000000000000000000000000000000000000000000000000000000000000000000000000000000000000000000000000000000000000000000000000000000000000000000000000000000000000000000000000000000000000000000000000000000000000000000000000000000000000000000000000000000000000000000000000000000000000000000000000000000000000000000000000000000000000000000000000000000000000000000000000000000000000000000000000000000000000000000000000000000000000000000000000000000000000000000000000000000000000000000000000000000000000000000000000000000000000000000000000000000000000000000000000000000000000000000000000000000000000000000000000000000000000000000000000000000000000000000000000000000000000000000000000000000000000000000000000000000000000000000000000000000000000000000000000000000000000000000000000000000000000000000000000000000000000000000000000000000000000000000000000000000000000000000000000000000000000000000000000000000000000000000000
#046920:0000000000140000
#046940:000000000000000000000000000000000000000000000000000000000000000000000000000000000000000000000000000000000000000000000000000000000000000000000000000000000000000000000000000000000000000000000000000000000000000000000000000000000000000000000000000000000000000000000000000000000000000000000000000000000000000000000000000000000000000000000000000000000000000000000000000000000000000000000000000000000000000000000000000000000000000000000000000000000000000000000000000000000000000000000000000000000000000000000000000000000000000000000000000000000000000000000000000000000000000000000000000000000000000000000000000000000000000000000000000000000000000000000000000000000000000000000000000000000000000000000000000000000000000000000000000000000000000000000000000000000000000000000000000000000000000000000000000000000000000000000000000000000000000000000000000000000000000000000000000000000000000000000000000000000000000000000000000000000000000000000000000000000000000000000000000000000000000000000000000000000000000000000000000000000000000000000000000000000000000000000000000000000000000000000000000000000000000000000000000000000000000000000000000000000000000000000000000000000000000000000000000000000000000000000000000000000000000000000000000000000000000000000000000000000000000000000000000000000000000000000000000000000000000000000000000000000000000000000000000000000000000000000000000000000000000000000000000000000000000000000000000000000000000000000000000000000000000000000000000000000000000000000000000000000000000000000000000000000000000000000000000000000000000000000000000000000000000000000000000000000000000000000000000000000000000000000000000000000000000000000000000000000000000000000000000000000000000000000000000000000000000000000000000000000000000000000000000000000000000000000000000000000000000000000000000000000000000000000000000000000000000000000000000000000000000000000000000000000000000000000000000000000000000000000000000000000000000000000000000000000000000000000000000000000000000000000000000000000000000000000000000000000000000000000000000000000000000000000000000000000000000000000000000000000000000000000000000000000000000000000000000000000000000000000000000000000000000000000000000000000000000000000000000000000000000000000000000000000000000000000000000000000000000000000000000000000000000000000000000000000000000000000000000000000000000000000000000000000000000000000000000000000000000000000000000000000000000000000000000000000000000000000000000000000000000000000000000000000000000000000000000000000000000000000000000000000000000000000000000000000000000000000000000000000000000000000000000000000000000000000000000000000000000000000000000000000000000000000000000000000000000000000000000000000000000000000000000000000000000000000000000000000000000000000000000000000000000000000000000000000000000000000000000000000000000000000000000000000000000000000000000000000000000000000000540000000000000000000000000000000000000000000000000000000000000000000000000000000000000000000000000000000000000000000000000000000000000000000000000000000000000000000000000000000000000000000000000000000000000000000000000000000000000000000000000000000000000000000000000000000000000000000000000000000000000000000000000000000000000000000000000000000000000000000000000000000000000000000000000000000000000000000000000000000000000000000000000000000000000000000000000000000000000000545454240000000000000000000000000000000000000000000000000000000000000000000000000000000000000000000000000000000000000000000000000000000000000000000000000000000000000000000000000000000000000000000000000000000000000000000000000000000000000000000000000000000000000000000000000000000000000000000000000000000000000000000000000000000000000000000000000000000000000000000000000000000000000000000000000000000000000000000000000000000000000000000000000000000000000000000000000000000000000000000000
#090970:0014
#0909a0:00000000000000000000002400000000
#090950:00000014
#090920:00000000000000000000000000000024
