This file was generated by Ched 2.7.0.0.
#TITLE ""
#ARTIST ""
#DESIGNER ""
#DIFFICULTY 0
#PLAYLEVEL
#SONGID ""
#WAVE ""
#WAVEOFFSET 0
#JACKET ""
#REQUEST "ticks_per_beat 480"
#00002: 4
#BPM01: 184
#00008: 01
#TIL00: ""
#VOLUME: ""
#HISPEED 00
#MEASUREHS 00
#00614:0014
#0061a:24
#0071a:14
#00714:0014
#00818:14
#00812:0014
#00918:14
#00912:0014
#01014:0014
#0101a:24
#01118:14
#01112:0014
#0121a:14
#01214:0014
#01318:14
#01312:0014
#01414:0014
#0141a:24
#01614:1414
#01610:41
#01718:1414
#01818:0014
#01812:24
#02018:1414
#02114:1414
#0221a:14
#02512:14
#0251a:0014
#02514:00000014
#0261a:14
#02718:14
#02819:15
#02916:15
#03012:0014
#03018:26
#03010:41
#03118:16
#03112:0014
#03218:16
#03212:0014
#0341a:0014
#03412:26
#03512:16
#0351a:0014
#03612:16
#0361a:0014
#0381a:14
#03812:0014
#03918:14
#03914:0014
#04014:00140000
#04018:0014
#04012:00000014
#0401a:24
#04010:41
#04118:1616
#04112:00160000
#04116:00000016
#04212:0016
#0431a:14
#04318:00140000
#04316:0014
#04314:00000014
#04418:00140000
#04414:0014
#0441a:00000014
#04412:24
#04512:16160000
#04518:0016
#04516:00000016
#04612:0016
#04718:1414
#04714:00140000
#05118:0014
#05114:00000014
#05318:14
#05312:24
#05414:14
#0541a:24
#05518:14
#05512:24
#05614:14
#05618:0014
#0561a:24
#05718:14
#05714:0014
#05712:24
#05814:14
#05818:0014
#0581a:24
#05918:14
#05914:0014
#05912:24
#06014:00140000
#0601a:24
#06112:14
#06118:00140000
#06414:00140000
#06418:0014
#06412:00000014
#0641a:24
#06518:14
#06514:00140000
#06618:00140000
#06614:0014
#0661a:00000014
#06612:24
#06714:14
#06718:00140000
#06214:00140000
#0621a:24
#06312:14
#06318:00140000
#0681a:0014
#07012:0014
#0701f:0011
#07114:0014
#07216:0014
#07318:0014
#0741a:0014
#0751a:14
#07514:0014
#07614:14
#07618:0014
#08014:00140000
#08018:0014
#08012:00000014
#0801a:24
#0801f:21
#08010:0041
#08116:00000016
#08118:2626
#08112:00260000
#08418:00140000
#08414:0014
#0841a:00000014
#08412:24
#08718:1414
#08714:00140000
#08516:00000016
#08512:26260000
#08518:0026
#08813:1515
#08818:00150000
#09012:14
#0901a:00140000
#09014:0014
#09018:00000014
#07718:14
#00512:00000026
#02312:24
#02318:24
#02314:0024
#0231a:0024
#02412:24
#02418:24
#0331a:2424
#03314:2424
#03718:2424
#03712:2424
#0521a:24
#05210:41
#07813:0000000000000026
#08212:0026
#0831a:24
#08318:00240000
#08316:0024
#08314:00000024
#08612:0026
#08918:2626
#08912:00260000
#07918:0024
#07914:00000024
#06910:0041
#00552:00000016
#01558:0014
#01954:0014
#0225a:14
#03058:16
#02956:65
#02859:65
#02758:64
#0265a:64
#03158:16
#03258:16
#03552:16
#03652:16
#03452:16
#04258:16
#04252:0016
#04158:0056
#04156:00000026
#04558:0056
#04556:00000026
#04652:0016
#04658:16
#0475a:00000014
#04758:0054
#0525a:14
#06752:00000014
#0655a:00000014
#06956:0000000000000014
#0685a:0054
#07853:0000000000000016
#08156:00000026
#08158:0056
#08258:16
#08252:0016
#08556:00000026
#08558:0056
#08652:0016
#08658:16
#08758:0014
#08853:0015
#09252:0000000000140000
#08958:0016
#0805a:14
#000330:000000000000000000000000000000000000000000000000000000140000000000000000000000000000000054000000
#000320:000000000000000000000000000000000000000000000000000000000000000000000000000000000000000000000036
#001330:00000054
#001320:00000000000000000000000000360000
#002330:000000000000005400000000
#002320:000000000000000000000000000000000000000000000000000000000000003600000000000000000000000000000000
#003330:000000000054000000000000
#003320:000000000000000000000000000000000000000000000036000000000000000000000000000000000000000000000000
#004330:000000000000000000000000000000005400000000000000000000000000000000000000000000000000000000540000
#004320:000000000000000000000000000000000000003600000000000000000000000000000000000000000000000000000000
#005320:00003626
#0153a0:14
#015380:0024
#019320:14
#019340:0024
#0263a0:14
#027380:34
#028390:35
#029360:35
#030380:26
#041380:0016
#041360:00000056
#042380:26
#045380:0016
#045360:00000056
#046380:26
#047380:0014
#0473a0:00000024
#048340:14000034
#049320:00340000
#049340:00000034
#050320:00340000
#050340:00000034
#051320:00240000
#0603a0:00001424
#061320:00001424
#0623a0:0014
#062380:00000024
#063320:0014
#063340:00000024
#0653a0:00001424
#067320:00001424
#0683a0:0014
#069360:0000000034343424
#077340:00140000
#078330:0000000000003626
#081380:0016
#081360:00000056
#082380:26
#085380:0016
#085360:00000056
#086380:26
#091320:1400340000000034
#091340:0000000034340000
#092320:0034000000240000
