This file was generated by Ched 2.7.0.0.
#TITLE ""
#ARTIST ""
#DESIGNER ""
#DIFFICULTY 0
#PLAYLEVEL
#SONGID ""
#WAVE ""
#WAVEOFFSET 0
#JACKET ""
#REQUEST "ticks_per_beat 480"
#00002: 4
#BPM01: 132
#00008: 01
#TIL00: "50'0:10000, 50'1440:1"
#VOLUME: ""
#HISPEED 00
#MEASUREHS 00
#0091a:14
#00910:41
#0101a:14
#01112:14
#01212:14
#01318:14
#01418:14
#01410:41
#01514:14
#01614:14
#03312:0016
#03318:26
#0331f:00210000
#03418:16
#03412:0016
#03518:16
#03512:0016
#03510:41
#03718:0016
#03712:16
#03812:16
#03818:0016
#03912:16
#03918:0016
#0251f:00110000
#02518:00343434
#00118:14
#00218:14
#00318:14
#00418:14
#00514:14
#00614:14
#00714:14
#00814:14
#02619:34
#0261a:00340000
#02714:00343434
#02813:34
#02812:00340000
#04218:00360000
#04217:36
#04712:00360000
#04713:00000036
#04812:00360000
#04117:0036
#04118:00360000
#04412:00360000
#04413:36
#04312:00360000
#04313:0036
#04618:00360000
#04517:00000036
#04518:00360000
#04510:41
#03112:00343434
#03213:34
#03214:00340000
#0291a:00343434
#03019:34
#03018:00340000
#01910:41
#02410:41
#0173a0:14
#018380:24
#019320:14
#020340:24
#021380:14
#0223a0:24
#023340:14
#024320:24
#025380:14343434
#026390:34
#0263a0:00342400
#027340:14343434
#028330:34
#028320:00342400
#0293a0:14343434
#030390:34
#030380:00342400
#031320:14343434
#032330:34
#032340:00342400
#036380:1626
#040320:1626
#041380:16360000
#041370:0036
#041360:00000036
#042370:36
#042380:00362600
#043320:16360000
#043330:0036
#043340:00000036
#044330:36
#044320:00362600
#045380:16360000
#045370:00003636
#046380:36360000
#046370:0026
#047320:16360000
#047330:00003636
#048320:36360000
#048330:0026
#0493a0:14
#0503a0:24
#0509d0:000000000000000000000000000000000000000000000000000000000000000000000000000000000000000000000000000000000000000000000000000000000000000000000000000000000000000000000000000000000000000000000000000000000000000000000000000000000000000000000000000000000000000000000000000000000000000000000000000000000000000000000000000000000000000000000000000000000000000000000000000000000000000000000000000000000000000000000000000000000000000000000000000000000000000000000000000000000000000000000000000000000000000000000000000000000000000000000000000000000000000000000000000000000000000000000000000000000000000000000000000000000000000000000000000000000000000000000000000000000000000000000000000000000000000000000000000000000000000000000000000000000000000000000000000000000000000000000000000000000000000000000000000000000000000000000000000000000000000000000000000000000000000000000000000000000000000000000000000000000000000000000000000000000000000000000000000000000000000000000000000000000000000000000000000000000000000000000000000000000000000000000000000000000000000000000000000000000000000000000000000000000000000000000000000000000000000000000000000000000000000000000000000000000000000000000000000000000000000000000000000000000000000000000000000000000000000000000000000000000000000000000000000000000000000000000000000000000000000000000000000000000000000000000000000000000000000000000000000000000000000000000000000000000000000000000000000000000000000000000000000000000000000000000000000000000000000000000000000000000000000000000000000000000000000000000000000000000000000000000000000000000000000000000000000000000000000000000000000000000000000000000000000000000000000000000000000000000000000000000000000000000000000000000000000000000000000000000000000000000000000000000000000000000000000000000000000000000000000000000000000000000000000000000000000000000000000000000000000000000000000000000000000000000000000000000000000000000000000000000000000000000000000000000000000000000000000000000000000000000000000000000000000000000000000000000000000000000000000000000000000000000000000000000000000000000000000000000000000000000000000000000000000000000000000000000000000000000000000000000000000000000000000000000000000000000000000000000000000000000000000000000000000000000000000000000000000000000000000000000000000000000000000000000000000000000000000000000000000000000000000000000000000000000000000000000000000000000000000000000000000000000000000000000000000000000000000000000000000000000000000000000000000000000000000000000000000000000000000000000000000000000000000000000000000000000000000000000000000000000000000000000000000000000000000000000000000000000000000000000000000000000000000000000000000000000000000000000000000000000000000000000000000000000000000000000000000000000000000000000000000000000000000000000000000000000000000000000000000000000000000000000000000000000000000000000000000000000000000000112100000000000000000000000000000000000000000000000000000000000000000000000000000000000000000000000000000000000000000000000000000000000000000000000000000000000000000000000000000000000000000000000000000000000000000000000000000000000000000000000000000000000000000000000000000000000000000000000000000000000000000000000000000000000000000000000000000000000000000000000000000000000000000000000000000000000000000000000000000000000000000000000000000000000000000000000000000000000000000000000000000000000000000000000000000000000000000000000000000000000000000000000000000000000000000000000000000000000000000000000000000000000000000000000000000000000000000000000000000000000000000000000000000000000000000000000000000000000000000000000000000000000000000000000000000000000000000000000000000000000000000000000000000000000000000000000000000000000000000000000000000000000000000000000000000000000000000000000000000000000000000000000000000000000000000000000000000000000000000000000000
