This file was generated by Ched 2.7.0.0.
#TITLE ""
#ARTIST ""
#DESIGNER ""
#DIFFICULTY 0
#PLAYLEVEL
#SONGID ""
#WAVE ""
#WAVEOFFSET 0
#JACKET ""
#REQUEST "ticks_per_beat 480"
#00002: 4
#BPM01: 132
#00008: 01
#TIL00: ""
#VOLUME: ""
#HISPEED 00
#MEASUREHS 00
#01218:0013000000001300
#01215:0000130000000013
#01214:24
#01312:00130000
#01315:0000000013000013
#01318:00000013
#0131a:24
#0151b:00130000
#01518:0000000013000013
#01515:00000013
#01512:24
#01618:0000000000130013
#01615:00000013
#01612:24
#01712:00000013
#0171b:0000001300000013
#01715:23
#02412:0000000000130000
#02415:13000013
#02418:0000000000000013
#0241b:0013000000000000
#02410:41
#0251b:13000013
#02512:0000000000000013
#02515:0000001300000000
#0251f:00110000
#02518:00230000
#0271b:0000000000130000
#02715:00000013
#02718:0000000000000013
#02712:0000001400000000
#0271a:00140000
#02812:13
#0281b:0013000000000000
#02814:00000024
#02818:0000000000000024
#03417:0013000000000000
#03415:0000001300000000
#03418:0013
#0341b:00000013
#03412:0000000000240000
#03518:00130000
#0351b:0000000000130000
#03512:2400000000240024
#03510:41
#03618:13
#03615:0013000000000000
#0361b:00130000
#03612:0000000000240000
#04216:0014000000000014
#04212:0000001400000000
#04218:0014
#0421a:00000014
#04214:0000000000240000
#04416:14
#0441a:0014000000000000
#04412:0000000000240000
#0011b:13
#00112:00130000
#00118:0000000000130000
#00115:0000000000000013
#00218:13130000
#00215:0013000000000000
#0031b:00130000
#00315:0000000000130000
#00318:0000000000000013
#00312:13
#00415:1300130000000013
#00418:0013000000001300
#0051b:13
#00515:0013
#00518:00130000
#00512:00000013
#00615:00000013
#00618:0000000000000013
#00712:13
#00718:0013
#00715:00130000
#0071b:00000013
#00915:00130000
#0091b:0000000000130000
#00912:0000000000000013
#00918:24
#00910:41
#01015:0013000000000000
#01018:24130000
#01118:00130000
#01112:0000000000130000
#0111b:0000000000000013
#01114:24
#01818:00000013
#01815:00000013000000000000000000001300
#0211b:00000013
#02112:0000001300000013
#02118:00240000
#02618:00000013000000000000000000001300
#02615:00000013
#0261b:13
#03112:0000240000130000
#03118:00000013
#03115:0000000000000013
#0311a:0000002400000000
#0321b:13
#03212:0013000000000000
#03218:0000000000120012
#03216:00000012
#02912:00240013
#0291b:0000000000000013
#02918:0000001300000000
#0331a:14
#0331b:0000000000130000
#03319:0000000000000013
#03312:1400000000240024
#03318:00240000
#03314:00240000
#0331f:00210000
#03816:0013000000000000
#03818:0000001300000000
#03815:0013
#03812:00000013
#0381a:0000000000240000
#03915:00130000
#03912:0000000000130000
#0391a:2400000000240024
#04015:13
#04018:0013000000000000
#04012:00130000
#0401a:0000000000240000
#03712:1400000000130000
#03714:0000240000000013
#0371a:1400000000240024
#03718:00240000
#04118:0000240000140000
#0411a:1400000000000014
#04112:1400000000240000
#04114:0000240000000024
#04318:00140000
#04314:0000001400000000
#0431a:0000000000240000
#04312:2400000000000024
#04616:0014000000000014
#0461a:0000001400000000
#04612:00000014
#04614:0014
#04618:0000000000240000
#04816:14000022
#04812:0014000000000000
#0481a:0000000000240000
#04514:0000240000140000
#04512:1400000000000014
#0451a:1400000000240000
#04518:0000240000000024
#04510:41
#04714:00140000
#04718:0000001400000000
#04712:0000000000240000
#0471a:2400000000000024
#02218:00000013000000000000000000002300
#02215:00000023
#03012:13
#03015:00000013000000000000000000002300
#03018:00000023
#02318:0000000000130013
#02315:00000013
#0231a:00240000
#02312:0000002400000000
#01912:00140000
#0191a:0000001400000000
#01915:0000000000130013
#01918:00000013
#01910:41
#02018:13000023
#02012:0013000000000000
#02015:0000000000000023
#01415:00000013
#01418:0000000000000013
#0141b:0000000000130000
#0141a:24
#01410:41
#04918:00220000
#04917:0000000000220000
#05016:22000082
#0255b:63
#02558:00130000
#02555:0000006300000000
#01058:00530000
#01255:00630000
#01755:63
#01752:00130000
#0175b:0000006300000000
#0285b:0063000000000000
#02858:0000001300000000
#03252:0053000000000000
#03255:0000001300000000
#03358:00140000
#0335a:64
#03352:54
#03354:00140000
#04456:0000001400000000
#0445a:0064000000000000
#04852:0054000000000000
#04856:0000001400000000
#02152:0000005300000000
#02958:0000005300000000
#00258:00530000
#00455:00630000
#0375a:64
#03752:54
#03758:00140000
#03754:00140000
#0365b:00630000
#04052:00530000
#0415a:64
#04152:54
#04158:00140000
#04154:00140000
#0455a:64
#04552:54
#04558:00140000
#04554:00140000
#01855:00000063000000000000000000000000
#01852:0000001300000000
#02258:00000053000000000000000000000000
#0225b:0000001300000000
#0265b:6300001300000000
#02658:00000053000000000000000000000000
#03052:5300001300000000
#03055:00000063000000000000000000000000
#0245b:0063000000000000
#02458:0000001300000000
#02052:0053000000000000
#02055:0000001300000000
#002380:00130000
#0023b0:0000000000230000
#004350:00130000
#004320:0000000000230000
#006380:1300000000230000
#008350:1300000000230000
#010380:00130000
#0103b0:0000000000230000
#012350:00130000
#012320:0000000000230000
#017350:13
#017320:00230000
#0173b0:0000001300000000
#017380:0000000000230000
#018350:13000033000000000000000000000000
#018320:0000002300000000
#020320:0013000000000000
#020350:0000002300000000
#021320:0000001300000000
#021350:0000000000230000
#022380:13000033000000000000000000000000
#0223b0:0000002300000000
#0243b0:0013000000000000
#024380:0000002300000000
#0253b0:13
#025380:00230000
#025350:0000001300000000
#025320:0000000000230000
#0263b0:1300002300000000
#026380:00000033000000000000000000000000
#0283b0:0013000000000000
#028380:0000002300000000
#029380:0000001300000000
#0293b0:0000000000230000
#030320:1300002300000000
#030350:00000033000000000000000000000000
#032320:0013000000000000
#032350:0000002300000000
#0333a0:14
#033380:00240000
#033321:14
#033341:00240000
#0363b1:00130000
#036361:0000000000240000
#0373a1:14
#037381:00240000
#037320:14
#037340:00240000
#040320:00130000
#040360:0000000000240000
#0413a0:14
#041380:00240000
#041321:14
#041341:00240000
#0443a1:0014000000000000
#044361:0000002400000000
#0453a1:14
#045381:00240000
#045320:14
#045340:00240000
#048320:0014000000000000
#048360:0000002400000000
#050360:12000022
