This file was generated by Ched 2.7.0.0.
#TITLE ""
#ARTIST ""
#DESIGNER ""
#DIFFICULTY 0
#PLAYLEVEL
#SONGID ""
#WAVE ""
#WAVEOFFSET 0
#JACKET ""
#REQUEST "ticks_per_beat 480"
#00002: 4
#BPM01: 132
#00008: 01
#TIL00: "50'0:10000, 50'1440:1"
#VOLUME: ""
#HISPEED 00
#MEASUREHS 00
#00514:14
#0051a:00140000
#00516:0014
#00512:00000014
#00418:00000014
#0061a:14
#00614:00000014
#00718:14
#00712:00140000
#00716:0014
#0071a:00000014
#00812:14
#01218:00000014
#01212:14
#01314:14
#0131a:00140000
#01316:0014
#01312:00000014
#01414:00000014
#01418:0000000000140000
#01410:41
#01518:14
#01512:00140000
#01516:0014
#0151a:00000014
#0101a:14
#01714:00000014
#01718:0014
#01712:24
#02118:00140014
#02114:0014
#02514:00001414
#0251f:00110000
#02518:00240000
#02618:14140000
#02614:00001414
#0271a:14140000
#02712:00001414
#0281a:14140000
#02812:00001414
#02918:1414
#02914:00140014
#0301a:1414
#03012:00140024
#0311a:14
#03112:0014
#03116:00240014
#0321a:14
#03318:14000014
#03312:0014
#0331a:00240000
#0331f:00210000
#03414:1414
#0341a:00140000
#03418:00000014
#03512:14
#03516:00140014
#0351a:0014
#03510:41
#03612:14
#03618:00140000
#03614:0014
#0361a:00000014
#03714:14000014
#0371a:0014
#03712:00240000
#03818:1414
#03812:00140000
#03814:00000014
#0391a:14
#03916:00140014
#03912:0014
#0401a:14
#04014:00140000
#04018:0014
#04012:00000014
#04118:14
#04114:0014
#0411a:00240014
#04212:1414
#04218:00140000
#04216:00000014
#0431a:14
#04314:00140000
#04318:0014
#04312:00000014
#0441a:14
#04416:00140000
#04412:0014
#04418:00000014
#04514:14
#04518:0014
#04512:00240014
#04510:41
#0461a:1414
#04614:00140000
#04616:00000014
#04712:14
#04718:00140000
#04714:0014
#0471a:00000014
#04812:14
#04816:00140000
#0481a:0014
#04814:00000024
#01814:00000014
#01918:00140000
#01912:00000014
#01910:41
#02016:14
#02014:00000024
#0231a:00000014
#02312:00260000
#02416:14
#02410:41
#02218:00000026
#04918:00240000
#04914:0000000000240000
#05018:24
#00910:41
#01754:00140000
#01752:54
#0335a:00140000
#03358:54
#0025a:00140000
#00452:00140000
#01058:00140000
#0105a:64
#01254:00140000
#01252:54
#01352:00000054
#0155a:00000064
#03754:64
#03752:00140000
#04158:54
#0415a:00140000
#04554:64
#04552:00140000
#02558:00140000
#0013a0:14340000
#001380:0000000000340000
#0023a0:34240000
#003320:14340000
#003340:0000000000340000
#004320:34240000
#0093a0:1400340000000034
#009380:0000000000340000
#0103a0:34
#010380:00240000
#011320:1400340000000034
#011340:0000000000340000
#012320:34
#012340:00240000
#013320:00000014
#014340:00240000
#0153a0:00000014
#016380:00240000
#017320:14
#017340:00240000
#018380:1424
#0203a0:00142400
#022340:1424
#024320:00142400
#025380:14240000
#032320:00140024
#033380:14
#0333a0:00240000
#037340:14
#037320:00240000
#041380:14
#0413a0:00240000
#045340:14
#045320:00240000
#0509d0:000000000000000000000000000000000000000000000000000000000000000000000000000000000000000000000000000000000000000000000000000000000000000000000000000000000000000000000000000000000000000000000000000000000000000000000000000000000000000000000000000000000000000000000000000000000000000000000000000000000000000000000000000000000000000000000000000000000000000000000000000000000000000000000000000000000000000000000000000000000000000000000000000000000000000000000000000000000000000000000000000000000000000000000000000000000000000000000000000000000000000000000000000000000000000000000000000000000000000000000000000000000000000000000000000000000000000000000000000000000000000000000000000000000000000000000000000000000000000000000000000000000000000000000000000000000000000000000000000000000000000000000000000000000000000000000000000000000000000000000000000000000000000000000000000000000000000000000000000000000000000000000000000000000000000000000000000000000000000000000000000000000000000000000000000000000000000000000000000000000000000000000000000000000000000000000000000000000000000000000000000000000000000000000000000000000000000000000000000000000000000000000000000000000000000000000000000000000000000000000000000000000000000000000000000000000000000000000000000000000000000000000000000000000000000000000000000000000000000000000000000000000000000000000000000000000000000000000000000000000000000000000000000000000000000000000000000000000000000000000000000000000000000000000000000000000000000000000000000000000000000000000000000000000000000000000000000000000000000000000000000000000000000000000000000000000000000000000000000000000000000000000000000000000000000000000000000000000000000000000000000000000000000000000000000000000000000000000000000000000000000000000000000000000000000000000000000000000000000000000000000000000000000000000000000000000000000000000000000000000000000000000000000000000000000000000000000000000000000000000000000000000000000000000000000000000000000000000000000000000000000000000000000000000000000000000000000000000000000000000000000000000000000000000000000000000000000000000000000000000000000000000000000000000000000000000000000000000000000000000000000000000000000000000000000000000000000000000000000000000000000000000000000000000000000000000000000000000000000000000000000000000000000000000000000000000000000000000000000000000000000000000000000000000000000000000000000000000000000000000000000000000000000000000000000000000000000000000000000000000000000000000000000000000000000000000000000000000000000000000000000000000000000000000000000000000000000000000000000000000000000000000000000000000000000000000000000000000000000000000000000000000000000000000000000000000000000000000000000000000000000000000000000000000000000000000000000000000000000000000000000000000000000000000000000000000000000000000000000000000000000000000000000000000000000000000000000000000000000000112100000000000000000000000000000000000000000000000000000000000000000000000000000000000000000000000000000000000000000000000000000000000000000000000000000000000000000000000000000000000000000000000000000000000000000000000000000000000000000000000000000000000000000000000000000000000000000000000000000000000000000000000000000000000000000000000000000000000000000000000000000000000000000000000000000000000000000000000000000000000000000000000000000000000000000000000000000000000000000000000000000000000000000000000000000000000000000000000000000000000000000000000000000000000000000000000000000000000000000000000000000000000000000000000000000000000000000000000000000000000000000000000000000000000000000000000000000000000000000000000000000000000000000000000000000000000000000000000000000000000000000000000000000000000000000000000000000000000000000000000000000000000000000000000000000000000000000000000000000000000000000000000000000000000000000000000000000000000000000000000000
