This file was generated by Ched 2.7.0.0.
#TITLE ""
#ARTIST ""
#DESIGNER ""
#DIFFICULTY 0
#PLAYLEVEL
#SONGID ""
#WAVE ""
#WAVEOFFSET 0
#JACKET ""
#REQUEST "ticks_per_beat 480"
#00002: 4
#BPM01: 128
#00008: 01
#TIL00: ""
#VOLUME: ""
#HISPEED 00
#MEASUREHS 00
#00118:14
#00212:14
#00318:14
#00412:14
#0051a:14
#00510:41
#00614:14
#0071a:14
#00814:14
#0091a:14
#0101a:14
#01114:14
#01214:14
#01210:41
#01318:14
#01418:14
#01512:14
#01612:14
#0171a:14
#01814:14
#01918:14
#01910:41
#02012:14
#0211a:14
#02214:14
#02318:14
#02412:14
#03312:0016
#03318:26
#0331f:21
#03512:16
#03518:0016
#03718:16
#03712:0016
#03818:16
#03812:0016
#04118:0016
#04212:16
#04218:0016
#04512:1616
#04618:1616
#04712:16
#04718:0016
#04812:16
#04818:0016
#04918:0016
#04912:26
#05118:16
#05112:0016
#05312:16
#05318:0016
#05412:16
#05418:0016
#05814:14
#05918:14
#06014:14
#06118:14
#0251f:11
#03410:41
#04310:41
#05010:41
#0253a0:14
#0263a0:24
#027340:14
#028340:24
#029380:14
#030380:24
#031320:14
#032320:24
#034380:1626
#036320:1626
#039380:1626
#040320:1636
#041320:26
#043320:1626
#044380:1626
#050320:1626
#052380:1626
#055320:1626
#056380:1636
#057380:26
