This file was generated by Ched 2.7.0.0.
#TITLE ""
#ARTIST ""
#DESIGNER ""
#DIFFICULTY 0
#PLAYLEVEL
#SONGID ""
#WAVE ""
#WAVEOFFSET 0
#JACKET ""
#REQUEST "ticks_per_beat 480"
#00002: 4
#BPM01: 128
#00008: 01
#TIL00: ""
#VOLUME: ""
#HISPEED 00
#MEASUREHS 00
#00818:2600001200000013
#00816:00000000000000120000140000000000
#00813:00001313
#0081a:00001313
#00815:00000000000000000000000000000013
#00812:26
#0091a:24000000140000000014000000000000
#00918:0000000000000013
#00915:00000000000000000000000000000013
#00916:00000000140000140000000000000000
#00912:24000000000000140000001400000000
#01012:13001313
#01014:0013000000000000
#01016:00130000
#01018:00000000000013000000130000000013
#01015:00000000000000130000130000001300
#0101b:00131313
#01019:0013000000000000
#01112:1400140013000013
#0111a:14140000
#01118:0000001300000000
#0111b:00000000000000001300001300000000
#01115:00000000000000000013000000000013
#01218:13000000130013000013000000001300
#0121b:00001300000000130000000013000000
#01215:00000000130000001300000013000013
#01212:0013000000130000
#01210:41
#01316:00000000000000000014000000000014
#0131a:14000000140000000000001400001300
#01313:0013
#01312:14000000140000000000001400000000
#0141b:13
#01419:0013000000000000
#01417:00130000
#01415:0000001300000000
#01412:1454540013000000
#01414:0000000000130000
#01416:00000013
#01418:0000000000000013
#0141a:0000000014545400
#01512:14000000140000001300001300000000
#0151a:14140000
#01515:0000001300000000
#0151b:0000000013000013
#01518:00000000000000000013000000000013
#01618:0000130000000013
#01615:13000000000000000000000000000013
#01612:00001300001400000000000000000000
#0161b:0013000000000000
#01616:00000000000000000014000014000000
#0161a:0000001414000000
#0171b:13
#01712:13
#01719:00120000
#01715:00120000
#01717:0000001200000000
#0171a:0012
#01716:00000012
#03218:52000000000000240024000012001200
#03216:00000000000000000000000000120012
#03217:0012000012000000
#0321a:00130000
#03215:0000001200120000
#03213:00130000
#03214:24
#03312:13000000130000000000001313001300
#03316:00000000000013130013000000000000
#03315:00000000000000000000000000000013
#0331a:24141414
#0331f:21
#03412:0013000013005300
#03416:0000130000530053
#03414:0000001300000000
#0341a:14141414
#03410:41
#03516:00000000130000000013001300000000
#03512:53000000000000000000000000131300
#0351a:14141414
#03615:00001300000000130000130000000013
#03618:00000000000013000000001300001300
#0361a:14241424
#03612:24142414
#04017:12
#0431b:13
#04318:00000000260000001313000026000013
#04315:00000000000000000000001313001300
#04312:26142600
#04310:41
#04416:0014001400130000
#04418:00000000130000000013001300000000
#04414:0000000000000013
#04419:0000000000000013
#0441b:13
#0441a:00001313
#04412:26262626
#04813:00130000000000000000000000000000
#0481a:0014000000000000
#04812:00000000130000001300000000130000
#04816:00141400
#0481b:0000001300130000
#04818:00000013
#04815:26000000000026000000001300001600
#04918:26000013130000000013000000000000
#0491b:00000000000013000000001300000000
#04912:2600000000130000
#04916:0000001400000013
#04919:00000000000000000000000000130013
#04914:00242424
#0501b:00130013001300000000000000001300
#05017:00001300000000130000130000000000
#05012:0000000000130000
#05019:0000001300000000
#05016:0000000000000013
#05014:24242424
#05010:41
#0511b:0000001300001300
#05112:00131300
#05114:2400001300130013
#0511a:24000000000000000000000000000013
#05119:0000000000130000
#05116:00242424
#05212:1313000000130000
#05219:00000013000000000000000000000000
#0521b:0000001300000013
#05214:00000000000000130000000000000000
#05216:2400240024002413
#05217:0000000000130000
#0561a:12000012000000000000000000001200
#05616:1212121212121212
#05618:00000000000000120012000000000000
#0561b:00000012
#00118:00000012000000000012000000000000
#00116:00000000120000000000120000000052
#0011a:00000000000012000000001200000000
#00114:00000000000000001200000000520000
#00113:22000012
#0011b:22
#00115:0000000000000052
#0021a:00520000000000001200000000000000
#00218:00000052000000000000120000000000
#00216:00000000000000520000000012000000
#00214:00000000005200000000000000001200
#0021b:12
#00213:00120000
#00217:52525200
#00219:0052000000000000
#00215:0000005200000000
#0031a:12000012
#00314:0000001200000000
#00316:0012
#00318:0000000000120012
#00416:1212120000001200
#00418:00120012000000001200000000000000
#00413:0000001300000013
#0041a:0000000000130000
#00518:12
#00517:00120012
#0051b:00000012000000000000001200000000
#0051a:00000000001200000012000000000000
#00516:00000000000012000000120000520000
#00519:00000000000000120000000000000000
#00515:0000000012000052
#00510:41
#00514:00000000000000000000000000000052
#0061a:0012
#00618:0000000000120000
#00616:00000012
#00614:0000000000000012
#00613:52
#0071a:1200001200120012
#00712:0000001200000000
#00718:0012
#00714:00001212
#00716:0000000000120012
#0071c:00000012
#01917:0000001200000012
#01918:12
#01910:41
#02116:12
#02115:00120000
#02119:00120000
#02117:0000001200000000
#02114:0012
#02118:00000012
#02317:0000001200000012
#02316:12
#02416:1200141414141414
#0241b:1212
#02413:00120012
#0241a:00000000000000000000000000120000
#02512:25140000
#0251a:00140000
#02516:000000000000000000000000000000000000000000000000000000000000000000000000000000000000000000000000000000000000000000000000000000000000000000000000000000000000000000000000000000000000000000000000000000000000000000000000000000000000000000000000000000000000000000000000000000000000000000000000000000000000000000000000000000000000000000000000000000000000000000000000000000000000000000000000000000000000000000000000000000000000000000000000000000000000000000000000000000000000000000000000000000000000000000000000000000000000000000000000000000000000000000000000000000000000000000000000000000000000000000000000000000000000000000000000000000000000000000000000000000000000000000000000000000000000000000000000000000000000000000000000000000000000000000000000000000000000000000000000000000000000000000000000000000000000000000000000000000000000000000000000000000000000000000000000000000000000000000000000000000000000000000000000000000000000000000000000000000000000000000000000000000000000000000000000000000000000000000000000000000000000000000000000000000000000000000000000000000000000000000000000000000000000000000000000000000000000000000000000000000000000000000000000000000000000000000000000000000000000000000000000000000000000000000000000000000000000000000000000000000000000000000000000000000000000000000000000000000000000000000000000000000000000000000000000000000000000000000000000000000000000000000000000000000000000000000000000000000000000000000000000140000000000000000000000000000000000000000000000000000000000000000000000000000000000000000000000000000000000000000000000000000000000000000000000000000000000000000000000000000000000000000000000000000000000000000000000000000000000000000000000000000000000000000000000000000000000000000000000000000000000000000000000000000000000000000000000000000000000000000000000000000000000000000000000000000000000000000000000000000000000000000000000000000000000000000000000000000000000000000000000007400000074000000007400000000000000000000000000000000000000000000000000000000000000000000000000000000000000000000000000000000000000000000000000000000000000000000000000000000000000000000000000000000000000000000000000000000000000000000000000000000000000000000000000000000000000000000000000000000000000000000000000000000000000000000000000000000000000000000000000000000000000000000000000000000000000000000000000000000000000000000000000000000000000000000000000000000000000000000000000000000000000000000000000000000000000000000000000000000000000000000000000000000000000000000000000000000000000000000000000000000000000000000000000000000000000000000000000000000000000000000000000000000000000000000000000000000000000000000000000000000000000000000000000000000000000000000000000000000000000000000000000000000000000000000000000000000000000000000000000000000000000000000000000000000000000000000000000000000000000000000000000000000000000000000000000000000000000000000000000000000000000000000000000000000000000000000000000000000000000000000000000000000000000000000000000000000000000000000000000000000000000000000000000000000000000000000000000000000000000000000000000000000000000000000000000000000000000000000000000000000000000000000000000000000000000000000000000000000000000000000000000000000000000000000000000000000000000000000000000000000000000000000000000000000000000000000000000000000000000000000000000000000000000000000000000000000000000000000000000000000000000000000000000000000000000000000000000000000000000000000000000000000000000000000000000000000000000000000000000000000000000000000000000000000000000000000000000000000000000000000000000000000000000000000000000000000000000000000000000000000000000000000000000000000000000000000000000000000000000000000000000000000000000000000000000000000000000000000000000000000000000000000000000000000000000000000000000000000000000000000000000000000000000000000000000000000000000000000000000
#02518:00000000000000000000000000000013
#0251f:11
#02519:25
#02615:1300000000130000
#0261b:0013001300000000
#02618:0000130013000012
#02612:0013000000001300
#02616:00000000000000000000000000000012
#02614:0012
#0261a:00000012
#0271a:14000014
#02712:14131300
#02718:00000000000013000000000000000013
#02715:00000000000000130000000000001300
#02716:0000000000140000
#0271b:00130000
#02816:0014000000140000
#02818:00000000000013000000000000000013
#02815:00000000000000130000000000001300
#02812:14142424
#0281a:24241414
#0291a:00140000
#02912:25140000
#02916:000000000000000000000000000000000000000000000000000000000000000000000000000000000000000000000000000000000000000000000000000000000000000000000000000000000000000000000000000000000000000000000000000000000000000000000000000000000000000000000000000000000000000000000000000000000000000000000000000000000000000000000000000000000000000000000000000000000000000000000000000000000000000000000000000000000000000000000000000000000000000000000000000000000000000000000000000000000000000000000000000000000000000000000000000000000000000000000000000000000000000000000000000000000000000000000000000000000000000000000000000000000000000000000000000000000000000000000000000000000000000000000000000000000000000000000000000000000000000000000000000000000000000000000000000000000000000000000000000000000000000000000000000000000000000000000000000000000000000000000000000000000000000000000000000000000000000000000000000000000000000000000000000000000000000000000000000000000000000000000000000000000000000000000000000000000000000000000000000000000000000000000000000000000000000000000000000000000000000000000000000000000000000000000000000000000000000000000000000000000000000000000000000000000000000000000000000000000000000000000000000000000000000000000000000000000000000000000000000000000000000000000000000000000000000000000000000000000000000000000000000000000000000000000000000000000000000000000000000000000000000000000000000000000000000000000000000000000000000000000000140000000000000000000000000000000000000000000000000000000000000000000000000000000000000000000000000000000000000000000000000000000000000000000000000000000000000000000000000000000000000000000000000000000000000000000000000000000000000000000000000000000000000000000000000000000000000000000000000000000000000000000000000000000000000000000000000000000000000000000000000000000000000000000000000000000000000000000000000000000000000000000000000000000000000000000000000000000000000000000000007400000074000000007400000000000000000000000000000000000000000000000000000000000000000000000000000000000000000000000000000000000000000000000000000000000000000000000000000000000000000000000000000000000000000000000000000000000000000000000000000000000000000000000000000000000000000000000000000000000000000000000000000000000000000000000000000000000000000000000000000000000000000000000000000000000000000000000000000000000000000000000000000000000000000000000000000000000000000000000000000000000000000000000000000000000000000000000000000000000000000000000000000000000000000000000000000000000000000000000000000000000000000000000000000000000000000000000000000000000000000000000000000000000000000000000000000000000000000000000000000000000000000000000000000000000000000000000000000000000000000000000000000000000000000000000000000000000000000000000000000000000000000000000000000000000000000000000000000000000000000000000000000000000000000000000000000000000000000000000000000000000000000000000000000000000000000000000000000000000000000000000000000000000000000000000000000000000000000000000000000000000000000000000000000000000000000000000000000000000000000000000000000000000000000000000000000000000000000000000000000000000000000000000000000000000000000000000000000000000000000000000000000000000000000000000000000000000000000000000000000000000000000000000000000000000000000000000000000000000000000000000000000000000000000000000000000000000000000000000000000000000000000000000000000000000000000000000000000000000000000000000000000000000000000000000000000000000000000000000000000000000000000000000000000000000000000000000000000000000000000000000000000000000000000000000000000000000000000000000000000000000000000000000000000000000000000000000000000000000000000000000000000000000000000000000000000000000000000000000000000000000000000000000000000000000000000000000000000000000000000000000000000000000000000000000000000000000000000000000000
#02915:00000000000000000000000000000013
#02919:25
#03018:13000000000000000000130000000012
#03012:0013001300000000
#03015:00131300
#0301b:0013000000001300
#03016:0000000000000012
#0301a:0012
#03014:00000012
#03116:1200000052000013
#03118:0012
#0311b:13
#03119:0013001300000000
#03117:00130000
#03112:0000520000130000
#03114:0052005200001300
#0311a:0000000000520052
#0311c:00000052
#03815:0000000000130000
#03812:0013000013001300
#03816:5400130000000013
#03814:0000001300000000
#0381a:2424242424242424
#04516:28000000000000000013000000000000
#04517:00005400000000000000001300000000
#04518:0000000026000013
#04515:00000000000054000000000000000013
#04513:0013
#0451a:00000013
#04512:00280026
#04614:0013000000000013
#0461b:00000000130000000000001300000000
#04612:13261326
#04619:0013000000000013
#04618:26000000001300002600130000000000
#04615:00000000000013000013000000000000
#04712:13260026
#0471a:0000140000000014
#04715:00000000000000001313000000000000
#04718:26000000000000002600001313000000
#04713:00000000000000000000000000000013
#05312:13000000001300000013000000000000
#05315:00000013000000000000001300000000
#05314:00000000000013000000000000130013
#05317:0000000000000013
#05316:00000000000000130000000000000000
#0531b:0000000000130000
#05318:24242424
#05418:2400241324132400
#05416:0000000000000013
#0541b:0013000000000013
#05415:00000000000000130013000000000000
#05412:00001300000000000000001300000000
#05512:2400001300001300
#05519:0000001300130013
#05513:00000000000000000000000000000013
#0551b:00131300
#05514:0000000000130000
#05518:24
#05516:00242424
#05719:1200525200000000
#05716:2200000000005252
#0571b:00000000005200000000000000000000
#05718:00000000000000000000000000520000
#01816:0012001200120012
#01818:00120000
#01814:00001212
#0201a:0012000000120000
#02018:00121200
#02016:0000001200000000
#02218:0012001200120012
#02216:00120000
#0221a:00001212
#0371b:00130000
#03717:00000000000013000000001300000000
#03719:00000000000000130013000013000000
#03718:0000000000000013
#0371a:14
#03712:2424242424242424
#03714:00000000000000000000000000000054
#0421b:0013000000130013
#04212:0000281300000000
#04217:00005400000000000000540000005414
#04216:28002828
#04215:0000005400000000
#03912:24242424
#0391a:24000000000000000023002300000000
#03918:00230023000000000000000000002300
#03915:0023000000000000
#03919:00000000002300230000000000000000
#03916:0000002300000000
#03917:0000000000230000
#0391b:00000000000000000000000000230023
#04112:28002828
#04116:00280000
#04115:0054000000540054
#04117:0000005400000000
#05813:0000520000000052
#05817:00000000005200005200520000000000
#05815:0000005200005200
#05819:00000000000000520000000000000000
#05913:52
#05919:0000525200000000
#0591b:00000000005200000000000000000000
#05916:0000000000005252
#05918:00000000000000000000000000520000
#06013:0000520000000052
#06017:00000000005200005200520000000000
#06015:0000005200005200
#06019:00000000000000520000000000000000
#06113:52
#0095a:44000000140000000024000000000000
#00952:34000000000000240000001400000000
#00956:00000000140000000000001400000000
#0105b:00005353
#01058:0000000000530000
#01152:14
#0115a:14
#0115b:00000000000000000000005300000000
#01155:00000000000000000053000000000000
#01552:14000000000000000000006300000000
#0155a:14
#01558:00000000000000000063000000000000
#0335a:14141414
#04057:12
#0515a:44
#05756:12
#0035a:12
#00558:12
#00556:12
#00456:00620062
#00453:0000002300000023
#00458:0052
#0045a:0000000000230000
#0075a:12
#00852:36
#00858:46
#01258:00530000
#0135a:14540000
#01352:14000000000000000000005400000000
#01452:00140000
#0145a:00000014
#01652:00000000005400000000000000000000
#01656:00000000000000000024000000000000
#0175b:43
#01752:33
#0175a:0052
#01756:00000052
#02158:12000062
#02156:12
#02154:0062
#0245b:12
#02552:35000014
#02559:45
#02556:000000000000000000000000000000000000000000000000000000000000000000000000000000000000000000000000000000000000000000000000000000000000000000000000000000000000000000000000000000000000000000000000000000000000000000000000000000000000000000000000000000000000000000000000000000000000000000000000000000000000000000000000000000000000000000000000000000000000000000000000000000000000000000000000005454000000000000000000000000000000000000000000000000000000000000000000000000000000000000000000000000000000000000000000000000000000000000000000000000000000000000000000000000000000000000000000000000000000000000000000000000000000000000000000000000000000000000000000000000000000000000000000000000000000000000000000000000000000000000000000000000000000000000000000000000000000000000000000
#0255a:00000014
#02655:53
#02652:0023000000000000
#02752:34
#0275a:44
#02952:35000014
#02959:45
#02956:000000000000000000000000000000000000000000000000000000000000000000000000000000000000000000000000000000000000000000000000000000000000000000000000000000000000000000000000000000000000000000000000000000000000000000000000000000000000000000000000000000000000000000000000000000000000000000000000000000000000000000000000000000000000000000000000000000000000000000000000000000000000000000000000005454000000000000000000000000000000000000000000000000000000000000000000000000000000000000000000000000000000000000000000000000000000000000000000000000000000000000000000000000000000000000000000000000000000000000000000000000000000000000000000000000000000000000000000000000000000000000000000000000000000000000000000000000000000000000000000000000000000000000000000000000000000000000000000
#0295a:00000014
#03058:63
#0305b:0023000000000000
#03452:00005353
#03456:0000000000230023
#0345a:14141414
#03552:33
#03556:00530000
#0355a:14141414
#04152:38003838
#04156:00480000
#04352:36540000
#04356:0000001400000000
#0475a:00640000
#04758:46
#04756:0000001400000000
#04658:0046
#04652:00000036
#04952:36
#04958:46
#05358:44
#05552:34
#01958:12
#0195b:12
#02356:12
#02353:12
#0365a:1414
#03652:00140014
#04256:48004848
#04252:00380000
#03952:14141414
#03852:00000053
#03856:0000000000000023
#04556:48
#04552:00380000
#004360:00122200
#004330:0000003300000000
#004381:00001222
#0043a1:0000000000330000
#004360:00000012
#004330:0000000000000033
#005360:22
#0063a0:1222000000000000
#006361:0012220000000000
#006380:0000122200000000
#006341:0000001222000000
#009321:00000000000000140000000000000000
#009361:00000000000000000024000000000000
#0093a0:00000000000000000014000000000000
#009360:00000000000000000000002400000000
#0103b0:00000000000000001300005333000000
#010380:00000000000000000053330000532300
#011350:00000000000000000013000000000000
#011370:00000000000000000000002300000000
#0113b1:00000000000000000000001300000000
#011371:0000000000000023
#012381:00130000
#0123b1:0000002300000000
#0133a1:00140000
#013361:0024
#013321:00000000000000000000001400000000
#013361:0000000000000024
#015381:00000000000000000013000000000000
#015361:00000000000000000000002300000000
#015320:00000000000000000000001300000000
#015360:0000000000000023
#016320:00000000001400000000000000000000
#016360:0024
#016360:00000000000000000014000000000000
#016320:00000024
#0173a0:0012
#017380:00000022
#017361:00000012
#018341:22
#018390:12
#0193b0:22
#019330:0000001200000000
#019360:0022
#019381:0012
#0193b1:0000000000220000
#019330:0000000000120000
#019360:00000022
#019381:00000012
#0193b1:0000000000000022
#020351:12
#020331:00000022
#020380:00000012
#0203b0:0000000000000032
#021380:22
#021340:0012
#021360:00000022
#021381:00000012
#0223a1:22
#022350:12
#023330:22
#0233b0:0000001200000000
#023380:0022
#023361:0012
#023331:0000000000220000
#0233b0:0000000000120000
#023380:00000022
#023361:00000012
#023331:0000000000000022
#025361:000000000000000000000000000000000000000000000000000000000000000000000000000000000000000000000000000000000000000000000000000000000000000000000000000000000000000000000000000000000000000000000000000000000000000000000000000000000000000000000000000000000000000000000000000000000000000000000000000000000000000000000000000000000000000000000000000000000000000000000000000000000000000000000000000000000000000000000000000000000000000000000000000000000000000000000000000000000000000000000000000000000000000000000000000000000000000000000000000000000000000000000000000000000000000000000000000000000000000000000000000000000000000000000000000000000000000000000000000000000000000000000000000000000000000000000000000000000000000000000000000000000000000000000000000000000000000000000000000000000000000000000000000000000000000000000000000000000000000000000000000000000000000000000000000000000000000000000000000000000000000000000000000000000000000000000000000000000000000000000000000000000000000000000000000000000000000000000000000000000000000000000000000000000000000000000000000000000000000000000000000000000000000000000000000000000000000000000000000000000000000000000000000000000000000000000000000000000000000000000000000000000000000000000000000000000000000000000000000000000000000000000000000000000000000000000000000000000000000000000000000000000000000000000000000000000000000000000000000000000000000000000000000000000000000000000000000000000000000000000000000000000000000000000000000000000000000000000000000000000000000000000000000000000000000000000000000000000000000000000000000000000000000000000000000000000000000000000000000000000000000000000000000000000000000000000000000000000000000000000000000000000000000000000000000000000000000000000000000000000000000000000000000000000000000000000000000000000000000000000000000000000000000000000000000000000000000000000000000000000000000000000000000000000000000000000000000000000000000000000000142400000000000000000000000000000000000000000000000000000000000000000000000000000000000000000000000000000000000000000000000000000000000000000000000000000000000000000000000000000000000000000000000000000000000000000000000000000000000000000000000000000000000000000000000000000000000000000000000000000000000000000000000000000000000000000000000000000000000000000000000000000000000000000000000000000000000000000000000000000000000000000000000000000000000000000000000000000000000000000000000000000000000000000000000000000000000000000000000000000000000000000000000000000000000000000000000000000000000000000000000000000000000000000000000000000000000000000000000000000000000000000000000000000000000000000000000000000000000000000000000000000000000000000000000000000000000000000000000000000000000000000000000000000000000000000000000000000000000000000000000000000000000000000000000000000000000000000000000000000000000000000000000000000000000000000000000000000000000000000000000000000000000000000000000000000000000000000000000000000000000000000000000000000000000000000000000000000000000000000000000000000000000000000000000000000000000000000000000000000000000000000000000000000000000000000000000000000000000000000000000000000000000000000000000000000000000000000000000000000000000000000000000000000000000000000000000000000000000000000000000000000000000000000000000000000000000000000000000000000000000000000000000000000000000000000000000000000000000000000000000000000000000000000000000000000000000000000000000000000000000000000000000000000000000000000000000000000000000000000000000000000000000000000000000000000000000000000000000000000000000000000000000000000000000000000000000000000000000000000000000000000000000000000000000000000000000000000000000000000000000000000000000000000000000000000000000000000000000000000000000000000000000000000000000000000000000000000000000000000000000000000000000000000000000000000000000000000000000000000000
#025361:000000000000000000000000000000000000000000000000000000000000000000000000000000000000000000000000000000000000000000000000000000000000000000000000000000000000000000000000000000000000000000000000000000000000000000000000000000000000000000000000000000000000000000000000000000000000000000000000000000000000000000000000000000000000000000000000000000000000000000000000000000000000000000000000001400000000000000000000000000000000000000000000000000000000000000000000000000000000000000000000000000000000000000000000000000000000000000000000000000000000000000000000000000000000000000000000000000000000000000000000000000000000000000000000000000000000000000000000000000000000000000000000000000000000000000000000000000000000000000000000000000000000000000000000000000000000000000000000
#0253a1:00000024
#025360:000000000000000000000000000000000000000000000000000000000000000000000000000000000000000000000000000000000000000000000000000000000000000000000000000000000000000000000000000000000000000000000000001400000000000000000000000000000000000000000000000000000000000000000000000000000000000000000000000000000000000000000000000000000000000000000000000000000000000000000000000000000000000000000000
#025320:00000024
#026350:13230000
#026320:0033000000000000
#029360:000000000000000000000000000000000000000000000000000000000000000000000000000000000000000000000000000000000000000000000000000000000000000000000000000000000000000000000000000000000000000000000000000000000000000000000000000000000000000000000000000000000000000000000000000000000000000000000000000000000000000000000000000000000000000000000000000000000000000000000000000000000000000000000000000000000000000000000000000000000000000000000000000000000000000000000000000000000000000000000000000000000000000000000000000000000000000000000000000000000000000000000000000000000000000000000000000000000000000000000000000000000000000000000000000000000000000000000000000000000000000000000000000000000000000000000000000000000000000000000000000000000000000000000000000000000000000000000000000000000000000000000000000000000000000000000000000000000000000000000000000000000000000000000000000000000000000000000000000000000000000000000000000000000000000000000000000000000000000000000000000000000000000000000000000000000000000000000000000000000000000000000000000000000000000000000000000000000000000000000000000000000000000000000000000000000000000000000000000000000000000000000000000000000000000000000000000000000000000000000000000000000000000000000000000000000000000000000000000000000000000000000000000000000000000000000000000000000000000000000000000000000000000000000000000000000000000000000000000000000000000000000000000000000000000000000000000000000000000000000000000000000000000000000000000000000000000000000000000000000000000000000000000000000000000000000000000000000000000000000000000000000000000000000000000000000000000000000000000000000000000000000000000000000000000000000000000000000000000000000000000000000000000000000000000000000000000000000000000000000000000000000000000000000000000000000000000000000000000000000000000000000000000000000000000000000000000000000000000000000000000000000000000000000000000000000000000000000000000000000000142400000000000000000000000000000000000000000000000000000000000000000000000000000000000000000000000000000000000000000000000000000000000000000000000000000000000000000000000000000000000000000000000000000000000000000000000000000000000000000000000000000000000000000000000000000000000000000000000000000000000000000000000000000000000000000000000000000000000000000000000000000000000000000000000000000000000000000000000000000000000000000000000000000000000000000000000000000000000000000000000000000000000000000000000000000000000000000000000000000000000000000000000000000000000000000000000000000000000000000000000000000000000000000000000000000000000000000000000000000000000000000000000000000000000000000000000000000000000000000000000000000000000000000000000000000000000000000000000000000000000000000000000000000000000000000000000000000000000000000000000000000000000000000000000000000000000000000000000000000000000000000000000000000000000000000000000000000000000000000000000000000000000000000000000000000000000000000000000000000000000000000000000000000000000000000000000000000000000000000000000000000000000000000000000000000000000000000000000000000000000000000000000000000000000000000000000000000000000000000000000000000000000000000000000000000000000000000000000000000000000000000000000000000000000000000000000000000000000000000000000000000000000000000000000000000000000000000000000000000000000000000000000000000000000000000000000000000000000000000000000000000000000000000000000000000000000000000000000000000000000000000000000000000000000000000000000000000000000000000000000000000000000000000000000000000000000000000000000000000000000000000000000000000000000000000000000000000000000000000000000000000000000000000000000000000000000000000000000000000000000000000000000000000000000000000000000000000000000000000000000000000000000000000000000000000000000000000000000000000000000000000000000000000000000000000000000000000000000000000000
#029360:000000000000000000000000000000000000000000000000000000000000000000000000000000000000000000000000000000000000000000000000000000000000000000000000000000000000000000000000000000000000000000000000000000000000000000000000000000000000000000000000000000000000000000000000000000000000000000000000000000000000000000000000000000000000000000000000000000000000000000000000000000000000000000000000001400000000000000000000000000000000000000000000000000000000000000000000000000000000000000000000000000000000000000000000000000000000000000000000000000000000000000000000000000000000000000000000000000000000000000000000000000000000000000000000000000000000000000000000000000000000000000000000000000000000000000000000000000000000000000000000000000000000000000000000000000000000000000000000
#0293a0:00000024
#029361:000000000000000000000000000000000000000000000000000000000000000000000000000000000000000000000000000000000000000000000000000000000000000000000000000000000000000000000000000000000000000000000000001400000000000000000000000000000000000000000000000000000000000000000000000000000000000000000000000000000000000000000000000000000000000000000000000000000000000000000000000000000000000000000000
#029321:00000024
#030381:13230000
#0303b1:0033000000000000
#035361:00130000
#035321:0023
#038321:00000013
#038361:0000000000000033
#039321:24
#0413a1:14
#041351:00542400000000000000000000000000
#041321:00140000
#041371:00000000005424000000000000000000
#0413a1:0014
#041351:00000000000000000054240000000000
#0413a1:00000014
#041351:00000000000000000000000000542400
#042321:14
#042371:00542400000000000000000000000000
#0423a1:00140000
#042351:00000000005424000000000000000000
#042321:0014
#042371:00000000000000000054240000000000
#042321:00000014
#042371:00000000000000000000000000542400
#043321:00140000
#043361:0000002400000000
#045321:14
#045371:00542400000000000000000000000000
#0453a1:00140000
#045351:00000000005424000000000000000000
#0473a1:00140000
#047361:0000002400000000
#001930:00000012
#002970:22
#0029b1:12
#002971:00220000
#002930:00120000
#002970:0022
#005970:00000012
#006930:22
#014920:14240000
#0149a0:00001424
#031960:120000000000000000000000000000000000000000000000000000000000000000000000000000000000000000000000000000000000000000000000000000000000000000000000000000000000000000000000000000000000000000000000000000000000000000000000000000000000000000000000000000000000000000000000000000000000000000000000000000000000000000000000000000000000000000000000000000000000000000000000000000000000000000000000000000000000000000000000000000000000000000000000000000000000000000000000000000000000000000000000000000000000000000000000000000000000000000000000000000000000000000000000000000000000000000000000000000000000000000000000000000000000000000000000000000000000000000000000000000000000000000000000000000000000000000000000000000000000000000000000000000000000000000000000000000000000000000000000000000000000000000000000000000000000000000000000000000000000000000000000000000000000000000000000000000000000000000000000000000000000000000000000000000000000000000000000000000000000000000000000000000000000000000000000000000000000000000000000000000000000000000000000000000000000000000000000000000000000000000000000000000000000000000000000000000000000000000000000000000000000000000000000000000000000000000000000000000000000000000000000000000000000000000000000000000000000000000000000000000000000000000000000000000000000000000000000000000000000000000000000000000000000000000000000000000000000000000000000000000000000000000000000000000000000000000000000000000000000000000000000000000000000000000000000000000000000000000000000000000000000000000000000000000000000000000000000000000000000000000000000000000000000000000000000000000000000000000000000000000000000000000000000000000000000000000000000000000000000000000000000000000000000000000000000000000000000000000000000000000000000000000000000000000000000000000000000000000000000000000000000000000000000000000000000000000000000000000000000000000000000000000000000000000000000000000000000000000000000000000005252220000000000000000000000000000000000000000000000000000000000000000000000000000000000000000000000000000000000000000000000000000000000000000000000000000000000000000000000000000000000000000000000000000000000000000000000000000000000000000000000000000000000000000000000000000000000000000000000000000000000000000000000000000000000000000000000000000000000000000000000000000000000000000000000000000000000000000000000000000000000000000000000000000000000000000000000000000000000000000000000000000000000000000000000000000000000000000000000000000000000000000000000000000000000000000000000000000000000000000000000000000000000000000000000000000000000000000000000000000000000000000000000000000000000000000000000000000000000000000000000000000000000000000000000000000000000000000000000000000000000000000000000000000000000000000000000000000000000000000000000000000000000000000000000000000000000000000000000000000000000000000000000000000000000000000000000000000000000000000000000000000000000000000000000000000000000000000000000000000000000000000000000000000000000000000000000000000000000000000000000000000000000000000000000000000000000000000000000000000000000000000000000000000000000000000000000000000000000000000000000000000000000000000000000000000000000000000000000000000000000000000000000000000000000000000000000000000000000000000000000000000000000000000000000000000000000000000000000000000000000000000000000000000000000000000000000000000000000000000000000000000000000000000000000000000000000000000000000000000000000000000000000000000000000000000000000000000000000000000000000000000000000000000000000000000000000000000000000000000000000000000000000000000000000000000000000000000000000000000000000000000000000000000000000000000000000000000000000000000000000000000000000000000000000000000000000000000000000000000000000000000000000000000000000000000000000000000000000000000000000000000000000000000000000000000000000000000000000000000000000
#031920:00520000
#031981:000000000000000000000000000000000000000000000000000000000000000000000000000000000000000000000000000000000000000000000000000000000000000000000000000000000000000000000000000000000000000000000000000000000000000000000000000000000000000000000000000000000000000000000000000000000000000000000000000000000000000000000000000000000000000000000000000000000000000000000000000000000000000000000000000000000000000000000000000000000000000000000000000000000000000000000000000000000000000000000000000000000000000000000000000000000000000000000000000000000000000000000000000000000000000000000000000000000000000000000000000000000000000000000000000000000000000000000000000000000000000000000000000000000000000000000000000000000000000000000000000000000000000000000000000000000000000000000000000000000000000000000000000000000000000000000000000000000000000000000000000000000000000000000000000000000000000000000000000000000000000000000000000000000000000000000000000000000000000000000000000000000000000000000000000000000000000000000000000000000000000000000000000000000000000000000000000000000000000000000000000000000000000000000000000000000000000000000000000000000000000000000000000000000000000000000000000000000000000000000000000000000000000000000000000000000000000000000000000000000000000000000000000000000000000000000000000000000000000000000000000000000000000000000000000000000000000000000000000000000000000000000000000000000000000000000000000000000000000000000000000000000000000000000000000000000000000000000000000000000000000000000000000000000000000000000000000000000000000000000000000000000000000000000000000000000000000000000000000000000000000000000000000000000000000000000000000000000000000000000000000000000000000000000000000000000000000000000000000000000000000000000000000000000000000000000000000000000000000000000000000000000000000000000000000000000000000000000000000000000000000000000000000000000000000000000000000000000000000000000000120000000000000000000000000000000000000000000000000000000000000000000000000000000000000000000000000000000000000000000000000000000000000000000000000000000000000000000000000000000000000000000000000000000000000000000000000000000000000000000000000000000000000000000000000000000000000000000000000000000000000000000000000000000000000000000000000000000000000000000000000000000000000000000000000000000000000000000000000000000000000000000000000000000000000000000000000000000000000000000000000000000000000000000000000000000000000000000000000000000000000000000000000000000000000000000000000000000000000000000000000000000000000000000000000000000000000000000000000000000000000000000000000000000000000000000000000000000000000000000000000000000000000000000000000000000000000000000000000000000000000000000000000000000000000000000000000000000000000000000000000000000000000000000000000000000000000000000000000000000000000000000000000000000000000000000000000000000000000000000000000000000000000000000000000000000000000000000000000000000000000000000000000000000000000000000000000000000000000000000000000000000000000000000000000000000000000000000000000000000000000000000000000000000000000000000000000000000000000000000000000000000000000000000000000000000000000000000000000000000000000000000000000000000000000000000000000000000000000000000000000000000000000000000000000000000000000000000000000000000000000000000000000000000000000000000000000000000000000000000000000000000000000000000000000000000000000000000000000000000000000000000000000000000000000000000000000000000000000000000000000000000000000000000000000000000000000000000000000000000000000000000000000000000000000000000000000000000000000000000000000000000000000000000000000000000000000000000000000000000000000000000000000000000000000000000000000000000000000000000000000000000000000000000000000000000000000000000000000000000000000000000000000000000000000000000000000000000000000000005252
#0319c1:00000052
#032981:22
#034921:00001353
#034961:0000000000530053
#035921:23
#037921:0000000000000014
#038961:24
