This file was generated by Ched 2.7.0.0.
#TITLE ""
#ARTIST ""
#DESIGNER ""
#DIFFICULTY 0
#PLAYLEVEL
#SONGID ""
#WAVE ""
#WAVEOFFSET 0
#JACKET ""
#REQUEST "ticks_per_beat 480"
#00002: 4
#BPM01: 128
#00008: 01
#TIL00: ""
#VOLUME: ""
#HISPEED 00
#MEASUREHS 00
#0011a:14
#00114:0014
#00218:14
#00214:0014
#0031a:14
#00312:0014
#00418:14
#00414:0014
#00412:00000034
#0051a:0014
#00510:41
#00612:14
#00618:0014
#00714:14
#00718:0014
#00814:0014
#00914:00140000
#00918:0014
#00912:00000014
#0091a:24
#01118:14
#01112:00140000
#0111a:0014
#01114:00000014
#01314:00140000
#01318:0014
#01312:00000014
#0131a:24
#01518:14
#01512:00140000
#0151a:0014
#01514:00000014
#0171a:14
#01714:0014
#01818:14
#01814:0014
#0191a:14
#01912:0014
#01910:41
#02018:14
#02014:0014
#02012:00000034
#02318:0014
#02312:14
#02414:0014
#02418:00000014
#02518:00140000
#02514:0014
#0251a:00000014
#0251f:11
#02512:24
#02612:14
#02618:0014
#02712:14
#0271a:0014
#02714:00000014
#02818:14
#02812:0014
#02914:00140000
#02918:0014
#02912:00000014
#0291a:24
#0301a:14
#03014:0014
#0311a:14
#03112:0014
#03118:00000014
#03214:14
#0321a:0014
#03318:00140000
#03316:0014
#03314:00000014
#03312:24
#0331a:24
#0331f:21
#03412:14
#03414:00140000
#03416:0014
#03418:00000014
#03410:41
#0351a:14
#03518:00343400
#03614:14
#03612:00343400
#03714:00140000
#03716:0014
#03718:00000014
#0371a:24
#03712:24
#0381a:14
#03818:00140000
#03816:0014
#03814:00000014
#03912:14
#03914:00343400
#04114:00140000
#0411a:0014
#04112:00000014
#04118:24
#04218:14
#04212:0014
#0431a:14
#04312:00140000
#04318:0014
#04314:00000014
#04310:41
#0441a:14
#04414:0014
#04518:00140000
#04512:2414
#0451a:24000014
#04614:14
#0461a:0014
#04712:14
#0471a:00140000
#04714:0014
#04718:00000014
#04812:14
#04818:0014
#04918:0014
#04914:00000014
#04912:24
#0491a:24
#0501a:14
#05018:00140014
#05014:0014
#05012:14
#05010:41
#05112:14
#05114:00343400
#05218:14
#0521a:00343400
#05314:0014
#05318:00000014
#0531a:24
#05312:24
#05412:14
#05414:00140014
#05418:0014
#0541a:14
#0551a:14
#05518:00343400
#05614:14
#05612:00343434
#05718:00130000
#05715:00000013
#05818:00131300
#05815:00000013
#05915:13000013
#05918:00130000
#06018:00131300
#06015:00000013
#06115:13
#02218:0014
#02212:14
#0211a:0014
#01210:41
#00454:0054
#00758:0054
#0085a:14
#02054:0054
#02358:0054
#0245a:14
#02652:64
#02658:0064
#02858:64
#02852:0064
#0305a:54
#03054:0054
#03254:54
#0325a:0054
#0355a:54
#03654:54
#03952:64
#04158:14
#04258:54
#04252:0054
#0445a:64
#04454:0064
#04654:64
#0465a:0064
#04852:54
#04858:0054
#05152:64
#05258:64
#0555a:54
#05654:54
#004340:0014
#004320:00000034
#005320:24
#007380:0014
#0083a0:24
#0103a0:14240000
#010340:00001424
#012380:14240000
#012320:00001424
#0143a0:14240000
#014340:00001424
#016380:14240000
#016320:00001424
#020340:0014
#020320:00000034
#021320:24
#023380:0014
#0243a0:24
#026320:14
#026340:00240000
#026380:0014
#0263a0:00000024
#028380:14
#0283a0:00240000
#028320:0014
#028340:00000024
#0303a0:14
#030380:00240000
#030340:0014
#030320:00000024
#032340:14
#032320:00240000
#0323a0:0014
#032380:00000024
#0353a0:14
#035380:00343424
#036340:14
#036320:00343424
#039320:14
#039340:00343424
#040380:14
#041380:24
#042380:14
#0423a0:00240000
#042320:0014
#042340:00000024
#0443a0:14
#044380:00240000
#044340:0014
#044320:00000024
#046340:14
#046320:00240000
#0463a0:0014
#046380:00000024
#048320:14
#048340:00240000
#048380:0014
#0483a0:00000024
#051320:14
#051340:00343424
#052380:14
#0523a0:00343424
#0553a0:14
#055380:00343424
#056340:14
#056320:00343434
#057320:24
