This file was generated by Ched 2.7.0.0.
#TITLE ""
#ARTIST ""
#DESIGNER ""
#DIFFICULTY 0
#PLAYLEVEL
#SONGID ""
#WAVE ""
#WAVEOFFSET 0
#JACKET ""
#REQUEST "ticks_per_beat 480"
#00002: 4
#BPM01: 169.33
#00008: 01
#TIL00: ""
#VOLUME: ""
#HISPEED 00
#MEASUREHS 00
#04618:2616
#0461f:21
#06614:14
#06618:0014
#06714:14
#06718:0014
#0131a:14
#01718:14
#01112:14
#0121a:14
#01514:14
#01618:14
#01414:14
#01012:14
#01010:41
#01814:14
#01918:14
#02012:14
#02010:41
#0211a:14
#02212:14
#0231a:14
#02414:14
#02518:14
#02614:14
#02718:14
#0301a:14
#03010:41
#03112:14
#0321a:14
#03312:14
#03418:14
#03514:14
#03618:14
#03714:14
#04712:1616
#04710:41
#04818:16
#04812:0016
#05012:2616
#05118:1616
#05212:16
#05218:0016
#05512:0016
#05518:16
#05412:0016
#05418:26
#05918:0016
#05912:16
#05818:0016
#05812:26
#05810:41
#06213:14
#06219:0014
#06419:14
#06413:0014
#06812:14
#0681a:0014
#07912:15
#08014:15
#08112:16
#08319:15
#08417:15
#08518:16
#05312:16
#05313:00160000
#0381f:11
#0701a:24
#07010:41
#08613:24340000
#08152:56
#07952:55
#08054:65
#08359:65
#08457:55
#08558:66
#05353:00260000
#05352:56
#004380:14
#005380:24
#006340:14
#007340:24
#008380:14
#009380:24
#028340:1434
#029340:3424
#038380:14
#0393a0:24
#040340:14
#041320:24
#0423a0:14
#043380:24
#044320:14
#045340:24
#049380:1626
#053320:1626
#053330:00560000
#056380:16
#056390:0034
#057390:34
#057380:0026
#060320:1626
#061380:1626
#063330:14
#063320:0026
#065390:1424
#069320:14
#069340:0024
#070320:0014
#071320:35
#072320:35
#073320:36
#074320:26
#0743a0:0014
#075390:35
#076390:35
#077380:36
#078380:26
#078320:0014
#079320:35
#080340:35
#081320:36
#082330:26
#0823a0:0014
#083390:35
#084370:35
#085380:36
#085370:0026
#086330:14340000
#086320:0036
#087320:36
#087340:0034
#088320:24
