This file was generated by Ched 2.7.0.0.
#TITLE ""
#ARTIST ""
#DESIGNER ""
#DIFFICULTY 0
#PLAYLEVEL
#SONGID ""
#WAVE ""
#WAVEOFFSET 0
#JACKET ""
#REQUEST "ticks_per_beat 480"
#00002: 4
#BPM01: 169.33
#00008: 01
#TIL00: ""
#VOLUME: ""
#HISPEED 00
#MEASUREHS 00
#0041b:13
#00418:000000000013000000130000
#00412:13
#00415:0013
#0071b:001300130000000000000000
#00712:131300000000
#00715:000000000013000000000000
#02312:13
#02314:00130000
#02319:001300000000
#02316:0013
#0231b:000000000013000000000000
#0281a:14141400
#02812:14141400
#0391b:13
#03919:00130000
#03912:00001313
#00918:000000000000000000130013
#00915:000000000013
#01112:130000000013000000000000
#01117:0013
#01114:000013
#01119:00000013
#01116:000000000000000000000013
#01312:0013
#01317:000000000013000000000000
#0131b:13
#01314:001300000000000000000000
#01319:001300000000
#01316:00130000
#0101b:000000000013000000130000
#01012:0013
#01015:23
#01010:41
#00512:130000000013000000000000
#00515:000000000000000013000013
#00518:00001313
#0181a:120000000012000000000000
#01814:1212
#01818:001200000000
#01816:00120000
#01917:12121200
#02016:000013000013000000000000
#0201b:23131300
#02014:000000000000000000000013
#02015:000013
#0201a:00000013
#02010:41
#0261b:0013
#02617:13
#02614:001300001300
#02619:00130013
#02616:000000000013000000000000
#02612:000000000000000000000013
#02915:0016
#03012:231300000000
#03013:000000000013000000000000
#03014:000013
#03015:000000000000000000000013
#0301b:23
#03010:41
#04012:000000000000000000000013
#04016:0013
#04017:13
#04019:00130000
#0401b:0013
#05212:13
#05214:00130023
#0521b:0013
#05219:00230013
#05217:23
#05216:0023
#05312:13
#05314:00130000
#05316:0013
#0531b:0013
#05317:23
#05319:00230000
#06017:00130014
#06016:13
#06015:0014
#0601a:0024
#0601b:23
#06012:00230024
#06114:14
#06112:0016
#06118:24152600
#06113:00250000
#0641b:130000000000000000000013
#06415:001300000000000000000000
#06418:001300000000
#06417:000000000013000000000000
#06419:000013
#06516:13
#06514:00130000
#06517:000000000013000000000000
#06512:000000131300
#06519:001300000000
#06515:00000016
#0061b:130000000013000000000000
#00618:000000000000000013000013
#00615:00001313
#02112:000000000013000013000000
#02113:001300000000
#02118:00130000
#02119:13
#0211b:000000000000000000000013
#02216:13
#02219:001300000000
#02214:00130000
#02217:000000000013000000000000
#02212:0013
#0221b:00000013
#02417:000013000013000000000000
#02412:13131300
#02419:000000000000000000000013
#02418:000013
#02413:00000013
#0251b:000000000013000013000000
#0251a:001300000000
#02515:00130000
#02514:13
#02512:000000000000000000000013
#02717:13
#02716:00130000
#03116:001300000000
#03114:000000000013000000000000
#0311b:000000000000000000000013
#03112:000013
#04618:000000000013000000000000000000000000000000000000
#0461a:000000000000000000000000001300000000000000000000
#04619:0000001300000000
#04612:00000013
#0461b:13
#04616:23
#0461f:21
#04716:13
#04713:000000000013000000000000000000000000000000000000
#04715:000000000000000000000000001300000000000000000000
#04714:0000001300000000
#0471b:13
#04717:00000013
#04710:41
#07012:0013
#07015:23
#07018:23
#07010:41
#07117:00130000
#0711b:13
#07317:0013
#0731b:13
#07212:0000001400000000
#07215:14
#07716:0013
#07712:13
#0761a:0000001400000000
#07617:14
#0621b:130013000000130000000013
#06215:001300000000000000000000
#06212:000000130013000000130000
#06218:001300
#06312:13
#06314:00130000
#06319:001300000000
#06315:0013
#06318:0013
#06612:130000000000000000000013
#06618:001300000000000000000000
#06615:001300000000
#06616:000000000013000000000000
#06614:000013
#06717:13
#06719:00130000
#06716:000000000013000000000000
#0671b:000000131300
#06714:001300000000
#06715:00000016
#06818:130013000000130000000013
#06815:000000130013000000130000
#06812:001300000000000000000000
#0681b:001300
#06915:13
#06914:00130000
#0691b:000000000013000000000000
#06919:001300000000
#06912:0013
#04812:13
#04813:00130000
#04814:0013
#04815:00000013
#04817:23
#04818:00230000
#04819:0023
#0481a:00000023
#0491b:13
#0491a:00130000
#04919:0013
#04918:00000013
#04916:23
#04915:00230000
#04914:0023
#04913:00000023
#05012:13
#05015:000000000013000000000000000000000000000000000000
#05013:000000000000000000000000001300000000000000000000
#05014:0000001300000000
#05017:13
#0501b:00000013
#05117:13
#0511a:000000000013000000000000000000000000000000000000
#05118:000000000000000000000000001300000000000000000000
#05119:0000001300000000
#05112:13
#05116:00000013
#0561b:13
#05619:0013
#05613:00130000
#05615:00000013
#05612:23
#05614:0023
#0561a:00230000
#05618:00000023
#05718:13
#0571a:0013
#05714:00130000
#05712:00000013
#05715:23
#05713:0023
#05719:00230000
#0571b:00000023
#05512:00000014
#05514:14
#05519:00140000
#0551a:0014
#05518:14
#05516:0014001400140000
#05418:00000014
#05412:14140000
#05413:0014
#05416:0014001400140000
#0541a:24
#0341b:131300000000
#0341a:000000000013000000000000
#03419:000013
#03418:000000000000000000000013
#03412:13
#03517:001300000000
#03519:000000000013000000000000
#03512:000000000000000000000013
#0351b:000013
#03216:13
#03214:00130000
#03219:001300000000
#03217:000000000013000000000000
#03212:0013
#0321b:00000013
#0121b:13
#01215:000000000013000000000000
#01218:0013
#01214:000013
#01219:00000013
#01212:000000000000000000000013
#0151b:130000000013000000000000
#01516:0013
#01519:000013
#01514:00000013
#01517:000000000000000000000013
#0171b:0013
#01716:000000000013000000000000
#01712:13
#01719:001300000000000000000000
#01714:001300000000
#01717:00130000
#01412:230000000013000000130000
#0141b:2313
#01612:13
#01618:000000000013000000000000
#01615:0013
#01619:000013
#01614:00000013
#0161b:000000000000000000000013
#03312:13
#03314:00130000
#03319:001300000000
#0331b:000000000013000000000000
#03316:0013
#03715:000000000013000000000000
#03718:0013
#0371b:001300000000
#0361b:000000000013000000000000
#03617:130000000000000000000013
#03616:0013
#03619:000013
#03614:00000013
#03612:001300000000
#04112:0013
#04117:13
#04312:13
#04314:00130000
#0431b:00001313
#04416:13
#04414:00130000
#04412:0013
#04417:0013
#04514:13
#04519:13
#0451b:00130000
#04512:00130000
#04212:13
#04216:0000001300000000
#04217:13
#0421b:0000001300000000
#0381b:13
#03817:0000001300000000
#03816:13
#03812:0000001300000000
#0381f:11
#0741b:0013
#07516:00130000
#07512:13
#08612:130013000000130000000013
#0861b:001300000000000000130000
#08618:000000130013000000000000
#08615:001300
#0871b:13
#08714:001300000000
#08719:00130000
#08715:0013
#08718:0013
#0591a:00000014
#05918:14
#05913:00140000
#05912:0014
#05914:14
#05916:0014001400140000
#05814:00000014
#0581a:14140000
#05819:0014
#05816:0014001400140000
#05812:24
#05810:41
#08212:23
#08212:23
#0881b:23
#08812:23
#0781b:23
#00818:53
#02356:0013
#02757:53
#02756:00630000
#0275b:0013
#02752:0013
#02252:0053
#0225b:00000063
#02152:000053
#0255b:000063
#0205b:13
#0305b:13
#04658:000000000023000000000000000000000000000000000000
#0465a:000000000000000000000000002300000000000000000000
#04659:0000005300000000
#04656:13
#0465b:63
#04756:63
#04753:000000000023000000000000000000000000000000000000
#04755:000000000000000000000000002300000000000000000000
#04754:0000005300000000
#0475b:13
#07052:0053
#07055:13
#07058:13
#07157:00230000
#0715b:63
#07357:0023
#0735b:63
#07252:0000002400000000
#07255:64
#07756:0023
#07752:53
#0765a:0000002400000000
#07657:54
#0625b:0013
#06252:00000013
#06355:0063
#06358:0053
#06352:00000013
#0635b:00000013
#06555:00000016
#06858:0013
#06855:00000013
#06952:0053
#06158:0016
#06152:0016
#05356:0063
#0535b:0063
#05352:00000013
#05357:00000013
#05052:53
#05055:000000000023000000000000000000000000000000000000
#05053:000000000000000000000000002300000000000000000000
#05054:0000006300000000
#05057:13
#05157:53
#0515a:000000000023000000000000000000000000000000000000
#05158:000000000000000000000000002300000000000000000000
#05159:0000006300000000
#05152:13
#05554:14
#05559:00640000
#0555a:0064
#05558:64
#05556:0024002400240000
#0545a:14
#05452:54540000
#05453:0054
#05456:0024002400240000
#01055:13
#01052:0053
#0105b:00000063
#01356:00630000
#0145b:1363
#01452:13000053
#01757:00530000
#04555:0013
#04558:0013
#04554:63
#04559:53
#0455b:00230000
#04552:00230000
#04452:0053
#04457:0053
#04252:53
#04256:0000002300000000
#04257:53
#0425b:0000002300000000
#0385b:63
#03857:0000002300000000
#03856:63
#03852:0000002300000000
#0405b:0063
#04157:53
#0355b:000063
#03652:005300000000
#0375b:006300000000
#03252:0053
#0325b:00000063
#03152:000053
#00455:0063
#00458:00000053
#0745b:0063
#07556:00230000
#07552:53
#08252:13
#08252:13
#08652:0013
#0865b:00000013
#08752:00000013
#0875b:00000013
#08755:0063
#08758:0053
#05958:14
#05953:00540000
#05952:0054
#05954:54
#05956:0024002400240000
#0585a:64640000
#05859:0064
#05856:0024002400240000
#05852:14
#01157:13
#01556:13
#0125b:13
#01652:13
#0785b:13
#004350:0013
#004320:00000023
#004381:00000013
#0053b1:23
#007381:0013
#008381:23
#010321:0013
#010361:00000023
#0103b0:00000013
#011370:23
#013360:00130000
#013320:000000000023000000000000
#0143b0:0013
#014370:00000023
#014321:00000013
#015361:23
#017371:00130000
#0173b1:000000000023000000000000
#021371:000000132300
#021320:000013
#021360:000000000000000000000023
#022320:0013
#022360:00000023
#0223b1:00000013
#023371:23
#025361:000000132300
#0253b0:000013
#025370:000000000000000000000023
#027370:13
#0273b0:00532300
#027361:00130000
#027321:0023
#028351:000000000000000000160026
#029351:162600000000
#029351:000000160026000000000000
#0303b1:000000130023000000000000
#0303b1:000000132300
#0303b1:000000000000000000130023
#0313b1:132300000000
#0313b1:000000130023000000000000
#0313b1:000000132300
#031320:000013
#031360:000000000000000000000023
#032320:0013
#032360:00000023
#0323b1:00000013
#033371:23
#034321:000000130023000000000000
#034321:000000132300
#034321:000000000000000000130023
#035321:132300000000
#035321:000000130023000000000000
#035321:000000132300
#0353b0:000013
#035370:000000000000000000000023
#036320:001300000000
#036360:000000000023000000000000
#037320:132300000000
#0373b1:001300000000
#037381:000000000023000000000000
#038361:13000023
#038321:0000005300000000
#0383b0:13000023
#038370:0000005300000000
#039360:13
#039340:00230000
#039370:00001323
#040320:13
#040340:00230000
#0403b0:0013
#040370:000000000000000000000023
#041370:13
#0413b0:0023
#042370:13000023
#0423b0:0000005300000000
#042321:13000023
#042361:0000005300000000
#043371:13
#043391:00230000
#043361:00001323
#0443b1:13
#044391:00230000
#044321:0013
#044341:00000023
#044370:0013
#044390:00000023
#045390:13
#0453b0:00530000
#045380:0023
#045341:13
#045321:00530000
#045351:0023
#0463b1:13
#046381:000000000053000000000000000000000000000000000000
#046391:0000005300000000
#0463a1:000000000000000000000000005300000000000000000000
#046371:00000023
#047361:13
#047331:000000000053000000000000000000000000000000000000
#047341:0000005300000000
#047351:000000000000000000000000005300000000000000000000
#047321:00000023
#050321:13
#050351:000000000053000000000000000000000000000000000000
#050341:0000005300000000
#050331:000000000000000000000000005300000000000000000000
#050361:00000023
#051371:13
#0513a1:000000000053000000000000000000000000000000000000
#051391:0000005300000000
#051381:000000000000000000000000005300000000000000000000
#0513b1:00000023
#0533b1:0013
#053371:00000023
#053360:0013
#053320:00000023
#054320:14340000
#054360:0054005400540000
#054330:0034
#054340:00000024
#055380:14
#055360:0054005400540000
#055390:00340000
#0553a0:00003424
#0583a0:14340000
#058360:0054005400540000
#058390:0034
#058380:00000024
#059340:14
#059360:0054005400540000
#059330:00340000
#059320:00003424
#063380:000000000013330000000000
#0633b0:00000023
#063351:0013
#063321:00000023
#064321:000000130023000000000000
#064341:000000132300
#064361:000000000000000000130023
#0663b1:000000130023000000000000
#066391:000000132300
#066371:000000000000000000130023
#069321:0013
#070351:23
#070321:0013
#070361:00000023
#0703b0:000000000000000000000000000000000000000000000000135353535353535353535353230000000000000000000000
#0703a0:000000000000000000000000000000000000000000000000000000000000000000000000000000000000000000000000005300530053005300530053005300530053005300530053000000000000000000000000000000000000000000000000
#0713b0:1323
#071370:00530000
#071321:135353535353535353535353535353535353535353535353230000000000000000000000000000000000000000000000
#071331:005300530053005300530053005300530053005300530053005300530053005300530053005300530053005300530053000000000000000000000000000000000000000000000000000000000000000000000000000000000000000000000000
#072351:14000024
#072321:0000005400000000
#0723a0:145454545454545454545454545454545454545454545454545454545454545454545454240000000000000000000000
#072390:005400540054005400540054005400540054005400540054005400540054005400540054005400540054005400540054005400540054005400540054005400540054005400540054000000000000000000000000000000000000000000000000
#0733b0:13
#073370:0053
#0743b0:23
#073321:135353535353535353535353535353535353535353535353535353535353535353535353535353535353535353535353
#073331:005300530053005300530053005300530053005300530053005300530053005300530053005300530053005300530053005300530053005300530053005300530053005300530053005300530053005300530053005300530053005300530053
#074321:23
#0743b1:0013
#074371:00000023
#074320:000000000000000000000000000000000000000000000000135353535353535353535353230000000000000000000000
#074330:000000000000000000000000000000000000000000000000000000000000000000000000000000000000000000000000005300530053005300530053005300530053005300530053000000000000000000000000000000000000000000000000
#075320:1323
#075360:00530000
#0753b1:135353535353535353535353535353535353535353535353230000000000000000000000000000000000000000000000
#0753a1:005300530053005300530053005300530053005300530053005300530053005300530053005300530053005300530053000000000000000000000000000000000000000000000000000000000000000000000000000000000000000000000000
#076371:14000024
#0763a1:0000005400000000
#076320:145454545454545454545454545454545454545454545454545454545454545454545454240000000000000000000000
#076330:005400540054005400540054005400540054005400540054005400540054005400540054005400540054005400540054005400540054005400540054005400540054005400540054000000000000000000000000000000000000000000000000
#077320:13
#077360:0053
#078320:53
#079360:53
#080320:53
#081360:53
#082320:23
#0773b1:135353535353535353535353535353535353535353535353535353535353535353535353535353535353535353535353
#0773a1:005300530053005300530053005300530053005300530053005300530053005300530053005300530053005300530053005300530053005300530053005300530053005300530053005300530053005300530053005300530053005300530053
#0783b1:23
#0783b1:000000000000000000000000000000000000000000000000135353535353535353535353230000000000000000000000
#0783a1:000000000000000000000000000000000000000000000000000000000000000000000000000000000000000000000000005300530053005300530053005300530053005300530053000000000000000000000000000000000000000000000000
#0793b1:135353535353535353535353535353535353535353535353230000000000000000000000000000000000000000000000
#0793a1:005300530053005300530053005300530053005300530053005300530053005300530053005300530053005300530053000000000000000000000000000000000000000000000000000000000000000000000000000000000000000000000000
#0803a1:145454545454545454545454545454545454545454545454545454545454545454545454240000000000000000000000
#080391:005400540054005400540054005400540054005400540054005400540054005400540054005400540054005400540054005400540054005400540054005400540054005400540054000000000000000000000000000000000000000000000000
#0813b1:135353535353535353535353535353535353535353535353535353535353535353535353535353535353535353535353
#0813a1:005300530053005300530053005300530053005300530053005300530053005300530053005300530053005300530053005300530053005300530053005300530053005300530053005300530053005300530053005300530053005300530053
#0823b1:33
#083371:53
#0843b1:53
#085371:53
#0863b1:23
#082320:000000000000000000000000000000000000000000000000135353535353535353535353230000000000000000000000
#082330:000000000000000000000000000000000000000000000000000000000000000000000000000000000000000000000000005300530053005300530053005300530053005300530053000000000000000000000000000000000000000000000000
#083320:135353535353535353535353535353535353535353535353230000000000000000000000000000000000000000000000
#083330:005300530053005300530053005300530053005300530053005300530053005300530053005300530053005300530053000000000000000000000000000000000000000000000000000000000000000000000000000000000000000000000000
#084320:145454545454545454545454545454545454545454545454545454545454545454545454240000000000000000000000
#084330:005400540054005400540054005400540054005400540054005400540054005400540054005400540054005400540054005400540054005400540054005400540054005400540054000000000000000000000000000000000000000000000000
#085320:135353535353535353535353535353535353535353535353535353535353535353535353230000000000000000000000
#085330:005300530053005300530053005300530053005300530053005300530053005300530053005300530053005300530053005300530053005300530053005300530053005300530053000000000000000000000000000000000000000000000000
#087351:000000000013330000000000
#087321:00000023
#087380:0013
#0873b0:00000023
