This file was generated by Ched 2.7.0.0.
#TITLE ""
#ARTIST ""
#DESIGNER ""
#DIFFICULTY 0
#PLAYLEVEL
#SONGID ""
#WAVE ""
#WAVEOFFSET 0
#JACKET ""
#REQUEST "ticks_per_beat 480"
#00002: 4
#BPM01: 180
#00008: 01
#TIL00: ""
#VOLUME: ""
#HISPEED 00
#MEASUREHS 00
#0101a:14
#0111a:14
#01214:14
#01210:41
#01314:14
#01418:14
#01518:14
#01612:14
#01712:14
#0181a:14
#01914:14
#02018:14
#02112:14
#0221a:14
#02314:14
#02418:14
#02410:41
#02512:14
#03214:14
#03318:14
#03412:14
#0351a:14
#03614:14
#0361f:0000000000000021
#03712:0016
#03718:26
#03710:0041
#04118:1616
#03912:16
#03918:0016
#04212:1616
#04512:0016
#04518:26
#04618:16
#04612:0016
#05112:16
#05118:0016
#05212:16
#05218:0016
#05312:0000001600000000
#05414:0016000000000000
#05712:0016
#05718:26
#05818:16
#05812:0016
#06118:1616
#06312:0016
#06318:26
#06418:16
#06412:0016
#06518:16
#06512:0016
#07018:16
#07012:0016
#07218:16
#07212:0016
#07612:16
#07618:0016
#04318:1616
#04412:1616
#05918:1616
#06012:1616
#07118:16
#07112:0016
#05012:16
#05018:0016
#06212:1616
#06912:0016
#06910:41
#0261f:11
#00218:26
#00412:26
#04918:26
#04910:41
#05610:0000000000000041
#05352:0000006600000000
#05454:0026000000000000
#0063a0:14
#0073a0:24
#008320:14
#009320:24
#0263a0:14
#0273a0:24
#028320:14
#029320:24
#0303a0:14
#0313a0:24
#038380:1626
#040320:1626
#047380:1626
#048320:1626
#049380:1626
#053320:1600363600000000
#054340:0056000000000000
#054320:0000000000000036
#055320:0000000000000026
#066380:1626
#067320:1626
#068380:1600363600000000
#069380:26
#073380:1600003600000036
#074380:0000003600000036
#075360:0026
#077320:1600000000000036
#078320:36
#079340:00360000
#082320:0000002400000000
