This file was generated by Ched 2.7.0.0.
#TITLE ""
#ARTIST ""
#DESIGNER ""
#DIFFICULTY 0
#PLAYLEVEL
#SONGID ""
#WAVE ""
#WAVEOFFSET 0
#JACKET ""
#REQUEST "ticks_per_beat 480"
#00002: 4
#BPM01: 143
#00008: 01
#TIL00: ""
#VOLUME: ""
#HISPEED 00
#MEASUREHS 00
#0021b:13
#00212:13
#00216:0014
#02115:1300001300001300
#02112:0013
#02118:1313
#0211a:00240024
#04118:00001300001300000000000000001300
#04115:00000013000000001400000000000013
#04112:1400001300000000
#0411b:00000000000000130000000000000000
#04218:13000000001300000000130013000000
#04215:00000000130013000000001300000000
#0421a:0014000024000014
#04212:0024000014000024
#04318:0013130023000013
#04315:13000013001300002300000000000000
#0431a:0000002400000000
#05015:00000013000000001300000000000000
#05019:00130000
#05014:0000000000130000
#05018:00001300000000000013000000000000
#05012:1400002400001400
#0501a:2400001400002400
#05016:0000000000000014
#05115:0013000000140000
#05118:00000013000000000000000000000000
#05114:00130000
#05119:00000000001300000000000000000000
#0511a:1414
#05117:00000000000000000000000000000000000000000000000000000000000000000000000000000014000000000000000000000000000000000000000000000000
#05112:1400001424000000
#05112:0000002400000000
#0561a:00140000
#05615:00000000000013000000002300000000
#05618:00002314
#05612:2313000000000023
#0561b:23
#05613:00000053000000000000000000000000
#05614:00530000
#00315:13131313
#02018:0013
#02012:13000000000013535300000000001300
#02015:00001353530000000000135353000000
#0201a:24240024
#02010:41
#00415:1314
#00412:00140014
#0041b:0013
#00418:00130013
#0041a:24
#00515:1414
#00512:00140014
#00518:00130013
#0051b:1313
#00615:00130013
#00612:0013
#00617:0014
#00618:13
#0061a:00140014
#00715:00130013
#00712:1313
#00717:1414
#0071a:00140014
#0091b:0000001300000000
#00912:0000240000000013
#00918:13000013000000000000130000000000
#00915:00001300000000001300001300000000
#0091a:00000024
#0161a:0014000000000014
#01615:00000014000000000000000013000000
#01616:14
#01512:1300000000000000000000000000001300000000000000000000000014000000
#0151b:00000000000000130000000000000000
#01514:00000024000000000000000000000000
#01518:0024000000000000
#01712:0014000000000000
#01716:14
#01717:00000014000000000000000000000000
#0171b:00000000003300000000000000000000
#01815:00000013000013000000000000530000
#0181b:1313
#01818:00001300130000000000130000130000
#01812:1313
#01819:0000000000000053
#0181a:00000000000000000000000000000053
#01814:0000000000000053
#01813:00000000000000000000000000000053
#01915:00001300001300001300000000000000
#01918:00000013000013001300000000000000
#0191b:53
#01912:53
#02315:1313
#0231b:0000001313000000
#02318:33133333000000000000000000000000
#02312:00240024
#02418:0013000013000000
#02415:00000013000013001300000000000000
#0241a:00240024
#02412:24
#0251b:13
#02515:0013000013000000
#02518:00000013000013001300000000000000
#02512:00240024
#02618:00001300000000000000001300001300
#0261a:00241400
#02612:14000024
#02615:00000013000013000000130000000000
#03618:00000033330033003300130033003300
#03615:00000033330033003300130033003300
#0361a:2424000000000000
#03612:2424000000000000
#0381a:00003434140034000000000000000000
#03812:00000000130000000000343414003400
#0381b:00000013
#03818:24
#03814:0024
#0381f:21
#03810:0041
#04018:00001300000013000000001300000000
#04015:00000013000000000000130000001300
#04012:14
#0401a:0014
#0401b:13
#04415:00000013000000000000331300000000
#0441b:1300000000000013
#04412:2400001313000000
#04418:00003313000000000000001300000000
#0441a:0024
#04518:00003313000000000000130000000000
#04515:00000013000000000000130000000000
#0451b:1313
#04512:2400001313000000
#04916:0000000000000014
#04912:2424
#04917:2424
#04914:0000002400000000
#0491a:0024000000000000
#04915:00000024000000000000000000000000
#04918:00000000002400000000000000000000
#04718:00000013000000000000000000000000
#0471b:0000000000000000000000130000000000000000000000001300000000000000
#04715:0013001313000000
#04712:14
#0471a:14
#04714:0000000000000024
#04615:00000013000013000000001300000000
#04618:00000013000000000000130000001300
#0461a:1414
#04612:1414
#01318:0000001313000000
#0131b:00000013
#01315:1313
#01312:00130013
#0131a:63
#01415:00000013000013000000000000000000
#01418:0013130000130013
#01412:0014
#0141a:0014
#05318:00231313
#05315:00130013
#05312:1300001300000033
#0531b:0000000000130033
#0531a:24
#02815:2400001400002400
#0281a:2400001400002400
#0281f:11
#02917:2400001400002400
#02912:2400001400002400
#03515:24000000000013000000001300000000
#03518:0000130000130013
#0351a:0014
#03512:0014
#0351b:53
#05718:00001314
#05715:2300001300000013
#0571a:00140000
#05714:0013000000000000
#05712:00000000530000000000135353000000
#0571b:23
#05713:00000053000000000000000000000000
#02218:00001353530013000000000000000033
#0221b:13000000000000001300001300001300
#02215:00000000000000130000130000000000
#02212:00240024
#06018:00001300140000000000002300000000
#06014:00000014
#06015:00000013000000002300000000000000
#06012:2300001300000000
#0601b:2300000013000023
#00819:0013001300000000
#00815:23000000000000000000003313000000
#00812:0000240013000033
#00817:0013
#0081a:00000053000000000000000024000000
#0081b:00530000
#01018:13000000000000000000003313000000
#01014:0013001300000000
#0101b:0000000013000033
#01016:0013
#0101a:00240000
#01012:00530024
#01013:00000053000000000000000000000000
#01115:13000013000013000000000000000000
#0111b:00131300
#01118:0013000000120000
#01112:0013
#01116:00000000000000000000001200000000
#02712:1400000064000014
#02718:0013000000240000
#02715:00000013000000000000000000000000
#02716:00001414
#0271a:00240064
#02714:0000002400000000
#02710:0041
#02713:00000000000000640000000000000000
#02719:00000000000000000000006400000000
#03412:00001353530000000000135353000000
#0341b:13000000000013535300000000001353
#03415:2324
#03418:00230000
#03417:00000024
#0391a:00003434140034000000000000000000
#03912:00130000
#0391b:00000013
#03915:0000000000000013
#03918:24
#03914:0024
#05417:00000000000000000000000000000000000000000000000000000000000000000014000000000000000000000000000000000000000000000000000000000000
#05415:0014
#0541b:13
#05412:13
#05812:23140000
#05818:00000000000013000000002300000000
#05814:00000014
#0581b:2313000000000023
#05815:0023
#0581a:00000053000000000000000000000000
#05819:00530000
#05914:00000014
#05918:2300001300000013
#05912:23140000
#05919:0013000000000000
#05915:0013
#0591b:00000000530000000000135353000000
#0591a:00000053000000000000000000000000
#05218:00000013000000000000331300000000
#05212:1300000024000013
#0521b:0000001313000000
#05215:00003313000000000000001300000000
#0521a:24
#03015:2400001400002400
#0301a:14000024
#03017:00000014000000000000000000000000
#03117:2400001400002400
#03112:14000024
#03115:00000014000000000000000000000000
#0321a:2400001400002400
#03212:1414
#03215:00000014000000000000000000000000
#03312:2400001400002400
#0331a:14000024
#03317:00000014000000000000000000000000
#01219:00000000000023006300000013000065
#01214:0000000013236300
#01218:00000000130000650000000000000000
#0121a:2400000000000023
#01213:00002300630000000000006500000000
#01210:41
#01212:00000065000000000000000000000000
#06118:23000013000013000000002200000000
#06115:0013000000000000
#06112:23232300
#06116:0000000000220000
#0611b:0023
#04812:2400000000240000
#0481a:0024000024000000
#04817:24000000000000000000002400000000
#04815:00000024000000002400000000000000
#04814:0000000000000024
#04818:0000002400000000
#04810:41
#03714:0000000000000024
#05510:41
#0025b:53
#00256:0024
#02155:63000063
#02152:0063
#05155:0000000000240000
#05157:00000000000000000000000000000000000000000000000000000000000000000000000000000024000000000000000000000000000000000000000000000000
#05152:00006435
#0515a:0064
#05159:00000045
#00455:2324
#00452:00240024
#0045a:14
#00555:2424
#00552:00240024
#00657:0024
#00658:23
#0065a:00240024
#00757:2424
#0075a:00240024
#01655:00000064000000000000000000000000
#01652:0013
#01757:00000054000000000000000000000000
#0175b:0013
#0235b:0053
#02358:00230000000000000000000013000000
#02455:0063
#02452:14000013
#02558:0053
#0255b:00000013
#0565a:00140000
#05658:00000014
#03658:0000000000230000
#0365a:0054000000000000
#03655:0000000000230000
#03652:0064000000000000
#0385a:00240000
#03858:6414
#03854:1454
#03852:00000024
#04055:00000053000000000000000000000000
#04058:00000000000000000000006300000000
#04052:14
#0405a:0014
#0445b:53
#04452:0063
#04458:00000053000000000000000000000000
#04455:00000000000000000000005300000000
#0455b:5353
#04558:00000053000000000000230000000000
#04555:0000000000230000
#04552:00005334
#0455a:00000044
#04758:00000063000000000000000000000000
#0475b:0000000000000000000000230000000000000000000000000000000000000000
#0475a:14
#04755:0053
#04655:00000000000000000000005300000000
#04658:00000063000000000000000000000000
#0465a:14
#04652:0014
#04957:0054
#04952:1454
#04955:00000064000000000000000000000000
#04852:14
#0485a:0014
#04857:00000000000000000000005400000000
#04855:00000064000000000000000000000000
#01358:0063
#0135b:00000023
#01355:5353
#01352:00230023
#01552:0000000000000000000000000000002300000000000000000000000000000000
#01554:00000054000000000000000000000000
#0155b:00000000000000230000000000000000
#01558:0064000000000000
#05358:00005353
#05355:00630063
#05352:0000002300000000
#0535b:0000000000230000
#02855:00000014
#0285a:00000014
#02957:00000014
#02952:00000014
#03555:14000000000000000000006300000000
#05758:00000014
#0575a:00140000
#01955:0053
#01958:0053
#02252:13
#0225b:0000000000000053
#03759:45
#03752:35
#04155:0064
#04152:14000014
#00855:13000023
#00852:0063
#01058:13000023
#0105b:0053
#01253:00002300000000000000005500000000
#01252:00000065000000000000000000000000
#01259:00000000000023000000000000000065
#01258:00000000000000650000000000000000
#01254:0000000000230000
#0125a:0000000000000023
#02652:14
#0265a:0014
#02752:14
#03954:1454
#0395a:00240000
#03958:6414
#04358:0053
#04355:0063
#05552:35
#05559:45
#0545b:53
#05452:63
#05455:0024
#05457:00000000000000000000000000000000000000000000000000000000000000000024000000000000000000000000000000000000000000000000000000000000
#05852:00140000
#05854:00000014
#05954:00000014
#05952:00140000
#06058:00440000
#06054:00000034
#05252:63
#05255:00000053000000000000000000000000
#0525b:0053
#05258:00000000000000000000006300000000
#0205a:14
#0305a:64000014
#03055:00000014
#03057:00000024000000000000000000000000
#03152:54000014
#03155:00000024000000000000000000000000
#03157:00000014
#03252:54
#0325a:00000014
#03255:00000024000000000000000000000000
#0335a:64000014
#03357:00000024000000000000000000000000
#03352:00000014
#0023b0:13
#002360:0054
#0033a0:34
#0043a0:24
#004351:1334
#004321:00340034
#005351:3434
#005321:00340034
#006351:23
#006380:13
#0063a0:00340034
#006370:0034
#007370:3434
#0073a0:00340034
#008380:23
#008320:0000000013000033
#008350:00000000000000000000003353000000
#009320:23
#0103b0:0000000013000033
#010380:00000000000000000000003353000000
#0113b0:23
#013350:1333
#013320:00530053
#014350:23
#013381:0013
#0133b1:00000053
#014381:23
#014351:00000000000000000000001300002300
#015381:0014000000002300
#0153b1:00000000000000530000000000000000
#015340:00000014000000000000000000000000
#015320:0000000000000000000000000000005300000000000000000000000000000000
#015350:00000023
#016350:00000014000000000000000000000000
#016320:0000003323000000
#016381:00001323
#017371:00000014000000000000000000000000
#0173b1:00000000003333002300000000000000
#017350:00001323
#018350:00000000000000000000001300230000
#019380:0013
#0193b0:00000023
#019351:0013
#019321:00000023
#021351:13
#021321:00230000
#021321:0013
#021351:00000033
#022321:23
#0223b1:0000000000000013
#022381:00000000000000000000000000000033
#023381:33533333000000000000000000000000
#0233b1:00230000
#0233b1:0013
#023381:00000023
#024351:0013
#024321:00000023
#025381:0013
#0253b1:00000023
#0283a1:00001424
#028350:00001424
#029320:00001424
#029371:00001424
#0303a1:1400003434002400
#030371:00000054000000000000000000000000
#030350:00001424
#031320:1400003434002400
#031350:00000054000000000000000000000000
#031371:00001424
#032321:1400002400000000
#032351:00000054000000000000000000000000
#0323a1:00001424
#0333a1:1400002400000000
#033371:00000054000000000000000000000000
#033321:00001424
#0333a0:00001424
#035350:00000000000000000000001300000000
#035320:0000000000000023
#0363a0:0014000000000000
#036380:00000033330033003300330033003300
#037390:25
#036321:0014000000000000
#036351:00000033330033003300330033003300
#037321:25
#037341:0000000000000014
#038341:24
#038380:1424
#0383a0:00003434540034000000000000000000
#038341:0014
#038321:00000000000000000000343454003400
#039341:24
#039380:1424
#0393a0:00003434540034000000000000000000
#039341:0014
#039321:00000024
#040351:00000013000000000000000000000000
#040321:0000005323000000
#040381:00000000000000000000001300000000
#0403b1:0000000000000053
#0413b1:23
#041351:0014
#041321:00000024
#043381:0013
#0433b1:00000023
#043350:0013
#043320:00000023
#0443b0:1300002300000000
#044380:00003333000000000000000000000000
#044320:0000000013000023
#044350:00000000000000000000333300000000
#0453b0:1300002300000000
#045380:00003333000000000000000000000000
#045320:00001324
#045350:0000000000530000
#0453b1:0013
#045381:0000000000530000
#0453a1:00000024
#046381:00000013000000000000000000000000
#0463b1:0000002300000000
#046351:00000000000000000000001300000000
#046321:0000000000000023
#047381:00000013000000002300000000000000
#0473b1:0000000000000000000000530000000000000000000000000000000000000000
#047350:0013
#047320:00000023
#048350:00000014000000000000000000000000
#048320:0000002400000000
#048370:00000000000000000000001400000000
#0483a0:0000000000000024
#049350:00000014000000000000000000000000
#049320:00000000002400000000000000000000
#049370:0014
#0493a0:00000024
#049321:0014
#049351:00000024
#051321:00001425
#051351:0000000000540000
#0513a0:0014
#051370:00000000000000000000000000000000000000000000000000000000000000000000000000000054000000000000000000000000000000000000000000000000
#051390:00000025
#052320:1300002300000000
#052350:00003333000000000000000000000000
#0523b0:0000000013000023
#052380:00000000000000000000333300000000
#053350:00133333
#053320:0000005300000033
#054320:33
#054350:0054
#055320:25
#053381:00133333
#0533b1:0000000000530033
#0543b1:33
#054371:00000000000000000000000000000000000000000000000000000000000000000054000000000000000000000000000000000000000000000000000000000000
#055391:25
#008990:0013000000000000
#0089b0:00230000
#010940:0013000000000000
#010920:00230000
#012930:0013230000000000
#012920:00000055000000000000000000000000
#012990:0000001323000000
#012980:00000000000000550000000000000000
#012940:0000000000132300
#012930:00000000000000000000005500000000
#0129a0:0000000000000013
#012990:00000000000000000000000000000055
#0139a0:23
#018980:00000000000000000000000000130000
#0199b0:23
#018951:00000000000000000000000000130000
#019921:23
#020951:0013230000000000
#020921:0000001323000000
#020951:0000000000132300
#022981:0013230000000000
#027941:0000001400000000
#027921:0024
#027981:0000000000140000
#0279a1:00000024
#034921:0013230000000000
#0349b1:0000001323000000
#034921:0000000000132300
#0349b1:0000000000000013
#0359b1:23
#056921:0013000000000000
#056941:00230000
#057941:0013000000000000
#057921:00230000
#057921:0000000000132300
#0589b1:0013000000000000
#058991:00230000
#059991:0013000000000000
#0599b1:00230000
#0599b1:0000000000132300
