This file was generated by Ched 2.7.0.0.
#TITLE ""
#ARTIST ""
#DESIGNER ""
#DIFFICULTY 0
#PLAYLEVEL
#SONGID ""
#WAVE ""
#WAVEOFFSET 0
#JACKET ""
#REQUEST "ticks_per_beat 480"
#00002: 4
#BPM01: 143
#00008: 01
#TIL00: ""
#VOLUME: ""
#HISPEED 00
#MEASUREHS 00
#00218:16
#04312:14
#0431a:0000000000000014
#04315:0033000013000000
#04318:0013
#02912:2400001400002400
#00312:1414
#00317:00140014
#0161b:0013000000001300
#01618:1300000000000013
#01615:00000013000000000000000000000000
#01612:0000003300000000
#01515:2300000000000013
#01518:13
#0151b:00003333000013000000000000000000
#01512:00003333000013000000000000000000
#01712:0013000000000000
#01715:13
#01718:00000013000000000000000000000000
#0171b:00000000003333000000000000000000
#0241b:13
#02418:00003313000000000000000000001300
#02415:00000013
#04418:0013000000130000
#04415:00000013000000000000001300000000
#0441a:0000001400000014
#04412:2424
#04518:0013000000000000
#04515:00000013000000000000000000000000
#0451a:0000001400000014
#04512:2424
#02014:0013000053530000
#02018:24
#02010:41
#02013:00000053000000530000005300000000
#02012:0000535300005353
#05416:0014
#05412:24
#0281a:2400001400002400
#0281f:11
#03218:2400001414000000
#0321a:00000024
#02615:0013000023000000
#02618:2300000000130000
#02614:00000033000000000000000000000000
#02619:00000000000000000000003300000000
#01318:0000001313000000
#01315:0013
#0131b:00000013
#01312:00000013
#01319:63
#01412:0013000000000000
#01418:00000000130000000000002300000000
#01415:0000001300130000
#0141b:0013
#03318:2400001414000000
#03312:2400001414000000
#0331a:00000024
#03314:00000024
#0551a:00140000
#05512:00000014
#05516:0014
#05510:41
#03112:2400001414000000
#03114:00000024
#0301a:2400001414000000
#03018:00000024
#02215:0000130000130000
#02212:0000001300000013
#02218:00001300000000000000001300000000
#0221b:0013
#0231b:1300001300000000
#02315:0013130013000013
#02318:00000013000000000000000013000000
#02118:0013
#02115:0000001313000000
#02114:53
#02715:0013000000000000
#02718:23
#0271a:0024
#02716:0000000000240024
#02712:00000024
#02714:00000033000000000000000000000000
#02710:0041
#03417:13
#03418:00130000
#03419:0013
#0341a:00000013
#03412:23
#03414:0023
#03415:00000023
#03413:00230000
#03517:14
#03518:00140000
#03519:0014
#0351a:00000014
#03513:00240000
#03512:24
#03515:00000024
#03514:0024
#0381a:00003434140034000000000000000000
#03812:00000000000000000000343414003400
#03818:24
#03814:0024
#0381f:21
#03810:0041
#04112:0000000000000014
#04117:14
#04115:0000001400000000
#0411a:0034000014000000
#04215:14
#04213:00140000
#04216:0000001400000000
#04214:0000000000140000
#04217:00000014
#04218:0024000000000000
#0421a:0000000000000024
#04219:0024
#03912:0000000000000014
#0391a:00003434140034000000000000000000
#03918:24
#04017:1400000000340000
#04015:0000001400000000
#0401a:0034000014000000
#04012:0000000000000014
#00618:2414
#0061a:00140014
#00612:1414
#00614:00140014
#00718:1414
#0071a:00140000
#00712:1414
#00714:00140000
#00412:1414
#00414:00140014
#00512:1414
#00514:00140014
#00815:13
#00814:0013
#00818:00250000
#00817:00000025
#00913:13
#00912:0013
#00916:00250000
#00915:00000025
#0101a:13
#01019:0013
#01014:00250000
#01013:00000025
#06114:0014001400000000
#06118:24000000000000002400646400000000
#0611a:00240000
#02515:00003313000000000000000000001300
#02512:13
#02518:00000013
#05118:0033000013000000
#05115:00231300
#05112:0000000000000014
#0511a:24
#0491a:0000000000000014
#04915:24
#04912:0034000024000000
#04917:0000002400000000
#05017:14
#05019:00140000
#05016:0000001400000000
#05018:0000000000140000
#05015:00000014
#05014:0024000000000000
#05012:0000000000000024
#05013:0024
#05215:0013000000130000
#05218:00000013000000000000001300000000
#05212:0000001400000014
#0521a:2424
#06016:14
#06017:0014
#06012:00250000
#06013:00000025
#01812:00000014
#0181a:00140000
#01918:00130000
#01915:1313
#05617:14
#05618:0014
#05612:00250000
#05613:00000025
#05719:14
#0571a:0014
#05714:00250000
#05715:00000025
#05812:14
#05813:0014
#05816:00250000
#05817:00000025
#05914:14
#05915:0014
#05918:00250000
#05919:00000025
#0531a:24140000
#05318:0014
#05317:0000000000000014
#05312:00242424
#01115:0013001300000000
#01118:13000000130000001300535300000000
#01219:0023000063630000
#01214:24
#01210:41
#0121a:00000063000000630000006300000063
#0121b:0000636300006363
#0361b:2333333333333333
#03612:2333333333333333
#03714:0000000000000024
#04815:2400000000340000
#04812:0034000024000000
#04817:0000002400000000
#0481a:0000000000000024
#04810:41
#04614:24
#04618:0024
#0461a:00000000000000000000343400000000
#04612:00000034000000000000000000000000
#04714:24
#0471a:0000000000000024
#04712:00003434000000000000000000000000
#00258:56
#01655:00000063000000000000000000000000
#01652:0013
#01758:00000053000000000000000000000000
#0175b:0013
#0245b:6313
#02458:00000023000000000000000000000000
#0285a:00000014
#02952:00000014
#05456:0024
#05452:54
#03258:0054
#0325a:00000014
#02655:0053000000000000
#02658:0000000000630000
#01358:0063
#01355:0063
#01352:00000023
#0135b:00000023
#01558:63
#01552:0000002300000000
#0155b:0000002300000000
#01555:63
#03358:0054
#03352:0054
#0335a:00000014
#03354:00000014
#03758:16
#03752:16
#03154:00000014
#03152:0054
#03058:00000014
#0305a:0064
#02158:0053
#02155:0053
#02755:0053000000000000
#0385a:00240000
#03858:54
#03852:00000024
#03854:0064
#04352:54
#04355:0053
#04358:0063
#05552:35
#04057:64000000000000000000001400000000
#0405a:00000014000000005400000000000000
#04157:64
#0415a:00000014000000006400000000000000
#00658:2424
#0065a:00240024
#00652:2424
#00654:00240024
#00758:2424
#0075a:00240000
#00752:2424
#00754:00240000
#00452:2424
#00454:00240024
#00552:2424
#00554:00240024
#00858:00150000
#00857:00000015
#00956:00150000
#00955:00000015
#01054:00150000
#01053:00000015
#0395a:00240000
#03958:5414
#05158:0063
#05155:0053
#0515a:54
#04952:00000014000000005400000000000000
#04955:54
#04855:54000000000000000000001400000000
#04852:00000014000000006400000000000000
#04654:64
#04658:0054
#04754:64
#04752:0014
#06052:00150000
#06053:00000015
#02552:5313
#02555:00000023000000000000000000000000
#04552:0014
#0535a:14
#02258:00000000000000000000001300000000
#02355:0013
#01955:0013
#02058:14
#05652:00150000
#05653:00000015
#05754:00150000
#05755:00000015
#05856:00150000
#05857:00000015
#05958:00150000
#05959:00000015
#002380:16
#002350:00000026
#004320:1434
#004340:00340034
#005320:3434
#005340:00340034
#006320:3434
#006340:00340034
#007320:3434
#007340:00340024
#006381:1434
#0063a1:00340034
#007381:3434
#0073a1:00340024
#013351:1333
#013321:00000053
#014351:23
#013380:0013
#0133b0:00000053
#014380:23
#014380:00000000000000000000001300003300
#015380:33000023
#0153b0:00003333000053000000000000000000
#015351:13000023
#015321:00003333000053000000000000000000
#016351:00000013000000000000000000000000
#016321:0000003323000000
#017381:00000013000000000000000000000000
#0173b1:00000000003333002300000000000000
#018351:1333333323000000
#018380:0000000013333333
#019380:23
#021380:1333
#0223b0:23
#021351:0013
#022321:23
#0243b1:1300003323000000
#024381:00003333000000000000000000000000
#025321:1300003323000000
#025351:00003333000000000000000000000000
#026351:0013000000000000
#026341:00000033000000000000000000000000
#026321:0000002300000000
#026381:0000000000130000
#026391:00000000000000000000003300000000
#0263b1:0000000000000023
#027351:0013000000000000
#027341:00000033000000000000000000000000
#027321:0000002300000000
#0283a1:00001424
#029321:00001424
#0303a1:0014
#030381:00000024
#031321:0014
#031341:00000024
#032381:0014
#0323a1:00000024
#033381:0014
#0333a1:00000024
#033320:0014
#033340:00000024
#0363b0:1333333333333333
#037380:26
#036321:1333333333333333
#037321:26
#038381:1424
#0383a1:00003434540034000000000000000000
#038340:0014
#038320:00000000000000000000343454003400
#039340:24
#039381:1424
#0393a1:00003434540034000000000000000000
#040371:14
#0403a1:00003424000000000000000000000000
#0403a1:0014
#040371:00000000000000000000342400000000
#041371:14
#0413a1:00003424000000000000000000000000
#0413a1:0014
#041371:00000024
#043321:14000023
#043351:00003300333333003300000000000000
#043380:00000000133333003300000000000000
#0433b0:00000023
#046340:14
#046320:00000034000024000000000000000000
#046380:0014
#0463a0:00000000000000000000343400002400
#047340:14
#047320:00003434000034002400000000000000
#048350:14
#048320:00003424000000000000000000000000
#048320:0014
#048350:00000000000000000000342400000000
#049350:14
#049320:00003424000000000000000000000000
#049320:0014
#049350:00000024
#0513a0:14
#051380:00003300333333003300000000000000
#0513b0:00000023
#051351:00000000133333003300000000000000
#051321:00000023
#054321:14
#054361:0054
#055321:25
#011980:00000000000000001300002300000000
#012990:0013000053530000
#0129b0:0000535300005353
#013990:23
#020940:0013000053530000
#020920:0000535300005353
#021940:23
#061980:00000000000000001400002400000000
