This file was generated by Ched 2.7.0.0.
#TITLE ""
#ARTIST ""
#DESIGNER ""
#DIFFICULTY 0
#PLAYLEVEL
#SONGID ""
#WAVE ""
#WAVEOFFSET 0
#JACKET ""
#REQUEST "ticks_per_beat 480"
#00002: 4
#BPM01: 112
#00008: 01
#TIL00: ""
#VOLUME: ""
#HISPEED 00
#MEASUREHS 00
#02918:2616
#0291f:21
#04718:16
#04712:0016
#0001a:14
#00012:0014
#0011a:14
#00112:0014
#00914:14
#01018:14
#01114:14
#00818:14
#0121a:14
#01210:41
#01514:14
#01418:14
#01312:14
#0161a:14
#01818:14
#01810:41
#01712:14
#03012:1616
#03010:41
#03118:16
#03112:0016
#03312:2616
#03418:1616
#03512:16
#03518:0016
#02718:14
#03918:0016
#03912:26
#04118:1616
#04212:1616
#04312:0016
#04318:26
#04310:41
#04512:16
#04518:0016
#04818:14
#04814:0014
#02814:14
#0201f:11
#01914:24
#01918:0024
#02514:34
#02413:0034
#00610:41
#05010:41
#02758:54
#02854:64
#002380:1424
#003340:1424
#0043a0:14
#005380:24
#006320:14
#007340:24
#020340:14
#021340:24
#022380:14
#023380:24
#024320:14
#024330:0034
#025340:3424
#0263a0:14
#026390:0034
#027380:34
#0273a0:0024
#028340:14
#028320:0024
#032380:1626
#036320:16362600
#037390:14
#037380:0036
#038390:24
#040320:1626
#044380:1626
#046320:16362600
#0503a0:14
#050380:0034
#0513a0:34
#051380:0024
#052320:14
#052340:0034
#053320:34
#053340:0034
#054340:34
#056320:0000000000000024
