This file was generated by Ched 2.7.0.0.
#TITLE ""
#ARTIST ""
#DESIGNER ""
#DIFFICULTY 0
#PLAYLEVEL
#SONGID ""
#WAVE ""
#WAVEOFFSET 0
#JACKET ""
#REQUEST "ticks_per_beat 480"
#00002: 4
#BPM01: 112
#00008: 01
#TIL00: ""
#VOLUME: ""
#HISPEED 00
#MEASUREHS 00
#0201f:11
#0201b:00000022
#02013:00220000
#01815:000000000013000000000000130000130000000000000000
#01812:0000001300001300
#01818:130000130000000000000013000013000000000000000000
#0181b:00130000
#01810:41
#01418:000000000013000000000000130000130000000000000000
#0141b:0000001300001300
#01415:130000130000000000000013000013000000000000000000
#01412:00130000
#01618:000000130000000000000013000013000000000013000000
#0161b:130000000000130000000000000000000013000000000000
#01612:000000000000000000130000000000000000130000000013
#01615:000000000013000000000000130000130000000000130000
#01212:13130000
#0121b:1300001300001300
#01218:000000000013000000000000130000130000000000130000
#01215:000000130000000000000013000013000000000000000000
#01210:41
#01718:000000130000000000130000130000000013000000000000
#01715:000013000000000013000013000013000000000000000013
#0171b:1300130000000013
#01712:000000000013000000000000000000000000130000000000
#03012:13001313
#0301b:0013000000130013
#03015:000000000000130013000000000000000000000000130000
#03018:000000000000000013000013000000000000130000000000
#03010:41
#02518:1616
#02512:130000000000130000000000130000000013000000130000
#02515:00160016
#0241b:130000000000130000000000130000000013000000130000
#02415:00160016
#02412:0016
#0341b:13001313
#03412:0013000000130013
#03418:000000000000130013000000000000000000000000130000
#03415:000000000000000013000013000000000000130000000000
#02712:002600260026000000160000
#02718:260000000000000000000000000000000000000000000000000000000000000000000000000000000000000000000000000000000000000000000000000000000000000000000000000000000000000000000000000000000000000000000000000000000000000000000000000000000000000000000000000000000000000000000000000000000000000000000000000000000000000000000000000000000000000000000000000000000000000000000000000000000000000000000000000000000000000000000000000000000000000000000000000000000000000000000000000000000000000000000000000000000000000000000000000000000000000000000000000000000000000000000000000000000000000000000000000000000000000000000000000000000000000000000000000000000000000026000000000000000000000000000000000000000000000000000000000000000000000000000000000000000000000000000000000000000000000000000000000000000000000000000000000000000000000000000000000000000000000000000000000000000000000000000000000000000000000000000000000000000000000000000000000000000000000000000000000000000000000000000000000000000000000000000000000000000000000000000000000000000000000000000000000000000000000000000000000000000000000000000000000000000000000000000000000000000000000000000000000000000000000000000000000000000000000000000000000000000000000000000000000000000000000000000000000000000000000000000000000000000000000000000000000000002600000000000000000000000000000000000000000000000000000000000000000000000000000000000000000000000000000000000000000000000000000000000000000000000000000000000000000000000000000000000000000000000000000000000000000000000000000000000000000000000000000000000000000000000000000000000000000000000000000000000000000000000000000000000000000000000000000000000000000000000000000000000000000000000000000000000000000000000000000000000000000000000000000000000000000000000000000000000000000000000000000000000000000000000000000000000000000000000000000000000000000000000000000000000000000000000000000000000000000000000000000000000000000000000000000000000000268600000000000000000000000000000000000000000000000000000000000000000000000000000000000000000000000000000000000000000000000000000000000000000000000000000000000000000000000000000000000000000000000000000000000000000000000000000000000000000000000000000000000000000000000000000000000000000000000000000000000000000000000000000000000000000000000000000000000000000000000000000000000000000000000000000000000000000000000000000000000000000000000000000000000000000000000000000000000000000000000000000000000000000000000000000000000000000000000000000000000000000000000000000000000000000000000000000000000000000000000000000000000000000000000000000000000000000000000000000000000000000000000000000000000000000000000000000000000000000000000000000000000000000000000000000000000000000000000000000000000000000000000000000000000000000000000000000000000000000000000000000000000000000000000000000000000000000000000000000000000000000000000000000000000000000000000000000000000000000000000000000000000000000000000000000000000000000000000000000000000000000000000000000000000000000000000000000000000000000000000000000000000000000000000000000000000000000000000000000000000000000000000000000000000000000000000000000000000000000000000000000000000000000000000000000000000000000000000000000000000000000000000000000000000000000000000000000000000000000000000000000000000000000000000000000000000000000000000000000000000000000000000000000000000000000000000000000000000000000000000000000000000000000000000000000000000000000000000000000000000000000000000000000000000000000000000000000000000000000000000000000000000000000000000000000000000000000000000000000000000000000000000000000000000000000000000000000000000000000000000000000000000000000000000000000000000000000000000000000000000000000000000000000000000000000000000000000000000000000000000000000000000000000000000000000000000000000000000000000000000000000000000000000000000000000000000000000000000000000000
#0281c:12
#02812:12
#02814:000000000000646464646464640000000000000000000000
#02818:000000000000646464646464640000000000000000000000
#02615:000000000000000000130000000000000013000000130000
#02618:00161316
#02612:16131600
#0261b:13
#01113:00120000
#01112:12
#01013:00000012
#01014:0012
#01015:00120000
#00919:00000012
#0091a:0012
#0091b:00120000
#0091c:12
#0081b:00000012
#0081a:0012
#00819:00120000
#00115:000000000000000000000013000000000000000000130000
#0011b:1300000000130000
#00118:00000013
#00112:00130000
#00212:0000130000000013
#0021b:1313
#00215:0000001300001300
#00218:0013000000130000
#00012:2300130013000013
#00015:0000001300001300
#00018:0013000000130000
#0001b:13131300
#01315:000000130000000000130000130000000013000000000000
#0131b:13130013
#01318:000000000000000013000013000013000000000000000013
#01312:1300000000000013
#05312:000000130000001c
#0531b:0013000000000000
#05316:14
#05315:00130000
#05216:000000140000140000000014000000000000000000000000
#05212:140000000000000000130000000000130000000000000013
#05218:00000013
#05215:000000000013
#0521b:0000000000000013
#0521a:24
#05016:000000140000140000000014000000000000000000000000
#0501b:000000000000000000130000000000130000000000000013
#05015:00000013
#0501a:14
#05018:000000000013
#05012:2400000000000013
#05010:41
#0511b:000000000000000000000013000000000000000000000000
#05112:000000140000000000000000000014000000000014000000
#05116:1400001400000014
#0511a:00140014
#04718:26162514
#04713:0015
#04717:0012001200120012
#04714:00000024
#04712:00260000
#04815:13
#04818:23120000
#04817:0012001200000000
#04816:00220000
#04616:14140000
#0461a:24
#04612:00242600
#04618:0026
#04512:0000001300130000
#0451b:2313000000000000
#04516:0000000024240000
#04412:000000000000000013000000000000000000000000130000
#04416:140000140000140014000000140000140000140000140000
#0441b:000000000000000000000013000000000000130000000000
#0431b:0013001300130013
#04316:0014141400141413
#04312:13001413
#04315:26
#04310:41
#04212:0000000000130000
#0421b:13
#04218:00000013
#04215:00000013
#04216:0000000024240000
#04112:2313000000000013
#04116:0000000000001414
#0411b:0000001313001300
#03618:14
#03614:00140000
#03612:2425
#0361a:00240000
#03619:0025
#0351b:0000000000130000
#03516:0000000024240000
#03515:23
#03112:0000000013000013
#03118:2300000000000013
#0311b:00000013
#03115:00000013
#0401b:000000000000000013000000000000000000000000130000
#04016:140000140000140014000000140000140000140000140000
#04012:000000000000000000000013000000000000130000000000
#03912:0013001300130013
#03916:0014141400141400
#0391a:0014
#03917:0000000000000013
#0391b:13000013
#03915:26
#03714:0013000000001800
#03716:14140000
#0371a:0000000000130000
#03713:0000000000130000
#03719:0000001300000000
#0371b:0023
#03712:23
#03315:0013001300130013
#03312:24000013
#03318:0000000000130013
#0331b:13131300
#0321b:13
#03219:00000015
#03212:0000000000132500
#03216:0000000024240000
#02918:0013001300130013
#0291b:00000013
#02915:0000000000130013
#02912:13131300
#0291f:21
#0291a:24
#0191b:1313
#01918:00130000
#01912:00130059
#01518:000000130000000013000000000000000000000000000000
#01515:1300001300000000
#01512:00130000
#0071b:00000013
#00712:00000013
#00715:00130000
#00718:13
#00615:000000000000000000130000000000130000000013000013
#00612:13
#00618:0000130000001313
#0061b:23
#00610:41
#00518:0000000000000013
#00515:130000000000000000130000000000000000000013000000
#00512:000000000000001300000000
#0051b:00130013
#00418:000000000000000000130000000000130000000013000013
#0041b:13
#00415:0000130000001313
#00412:23
#00312:00240000
#0031a:24
#00314:000000000034000000000000
#00313:003400
#00318:003400000000
#00319:003400000000000000000000
#02318:00000022
#02316:00220000
#02219:00000022
#02215:00220000
#0211a:00000022
#02114:00220000
#05617:0000000000000072
#03817:72
#04912:7c
#01158:00000012
#01152:00000016
#0455b:4313
#04552:0000000000130000
#04452:135300
#04456:5464000064000000
#0425b:0013
#04258:0000000000005316
#04252:0000000000130016
#04255:00000063
#04152:3313
#0415b:0013
#03552:0013
#03555:33
#0355b:0000000000130000
#0315b:0013
#03158:43
#03152:0013
#0405b:136300
#04056:6454000054000000
#0325b:1313
#03252:0000000000131500
#03259:00000015
#02452:1616
#02455:00160016
#0155b:00000013
#01552:00130000
#01352:00130000
#01355:0063000000000000
#0135b:63000013
#00858:12
#00352:00000014
#0035a:00000014
#02758:000000000000000000000000000000000000000000000000000000000000000000000000000000000000000000000000000000000000000000000000000000000000000000000000000000000000000000000000000000000000000000000000000000000000000000000000000000000000000000000000000000000000000000000000000000000000000000000000000000000000000000000000000000000000000000000000000000000000000000000000000000000000000000000000000000000000000000000000000000000000000000000000000000000000000000000000000000000000000000000000000000000000000000000000000000000000000000000000000000000000000000000000000000000000000000000000000000000000000000000000000000000000000000000000000000000000000000000000000000000000000000000000000000000000000000000000000000000000000000000000000000000000000000000000000000000000000000000000000000000000000000000000000000000000000000000000000000000000000000000000000000000000000000000000000000000000000000000000000000000000000000000000000000000000000000000000000000000000000000000000000000000000000000000000000000000000000000000000000000000000000000000000000000000000000000000000000000000000000000000000000000000000000000000000000000000000000000000000000000000000000000000000000000000000000000000000000000000000000000000000000000000000000000000000000000000000000000000000000000000000000000000000000000000000000000000000000000000000000000000000000000000000000000000000000000000000000000000000000000000000000000000000000000000000000000000000000000000000000000000000000000000000000000000000000000000000000000000000000000000000000000000000000000000000000000000000000000000000000000000000000000000000000000000000000000000000000000000000000000000000000000000000000000000000000000000000000000000000000000000000000000000000000000000000000000000000000000000000000000000000000000000000000000000000000000000000000000000000000000000000000000000000000000000000000000000000000000000000000000000000000000000000000000000000000000000000000000000000000000000000005600000000000000000000000000000000000000000000000000000000000000000000000000000000000000000000000000000000000000000000000000000000000000000000000000000000000000000000000000000000000000000000000000000000000000000000000000000000000000000000000000000000000000000000000000000000000000000000000000000000000000000000000000000000000000000000000000000000000000000000000000000000000000000000000000000000000000000000000000000000000000000000000000000000000000000000000000000000000000000000000000000000000000000000000000000000000000000000000000000000000000000000000000000000000000000000000000000000000000000000000000000000000000000000000000000000000000000000000000000000000000000000000000000000000000000000000000000000000000000000000000000000000000000000000000000000000000000000000000000000000000000000000000000000000000000000000000000000000000000000000000000000000000000000000000000000000000000000000000000000000000000000000000000000000000000000000000000000000000000000000000000000000000000000000000000000000000000000000000000000000000000000000000000000000000000000000000000000000000000000000000000000000000000000000000000000000000000000000000000000000000000000000000000000000000000000000000000000000000000000000000000000000000000000000000000000000000000000000000000000000000000000000000000000000000000000000000000000000000000000000000000000000000000000000000000000000000000000000000000000000000000000000000000000000000000000000000000000000000000000000000000000000000000000000000000000000000000000000000000000000000000000000000000000000000000000000000000000000000000000000000000000000000000000000000000000000000000000000000000000000000000000000000000000000000000000000000000000000000000000000000000000000000000000000000000000000000000000000000000000000000000000000000000000000000000000000000000000000000000000000000000000000000000000000000000000000000000000000000000000000000000000000000000000000000000000000000000000000000000000
#02752:00000066
#00052:13
#0525a:14
#05256:000000240000000000000054000000000000000000000000
#05252:5400000000530000
#05052:14
#05056:000000240000000000000064000000000000000000000000
#0505b:0000000000630000
#0505a:64
#04758:4645
#04754:00000034
#04752:00360000
#04856:00320000
#04858:43
#0465a:44
#04652:00343600
#04658:0046
#04355:46
#04352:53005453
#04356:0064540000640063
#0435b:0000006300000000
#03652:3435
#0365a:00440000
#03659:0045
#03955:36
#0395a:0064
#03956:0054640000540000
#03957:0000000000000053
#0395b:63000063
#03952:0000005300000000
#03352:34000053
#03355:0063006300000063
#03358:0000000000530000
#0335b:63636300
#0295a:44
#02958:0053005300000053
#0295b:00000063
#02955:0000000000630000
#02952:53535300
#0065b:13
#00655:0000000000630000
#00652:53
#00452:13
#00458:0000000000530000
#0045b:63
#01252:00130000
#0125b:00000013
#03052:5353
#03055:006300
#0305b:0063000000000000
#02558:1616
#02555:00160016
#0345b:6363
#03458:005300
#03452:0053000000000000
#0285c:62
#02852:52
#02658:00160016
#02652:1616
#00155:000000000000000000000063000000000000000000000000
#05352:000000230000005c
#0535b:0023000000000000
#05356:54
#05355:00630000
#0515b:000000000000000000000063000000000000000000000000
#05152:000000240000000000000000000054000000000000000000
#05156:6400000000000054
#03754:00000058
#03756:54640000
#0195b:1313
#01952:00130000
#0175b:00130000
#01752:00000013
#01852:00000013
#0185b:00130000
#01652:00000013
#0165b:00130000
#0145b:00000013
#01452:00130000
#0075b:00000063
#00752:00000053
#00755:00630000
#00758:53
#00558:0000000000000053
#00552:000000000000005300000000
#00555:63
#001320:1323000000000000
#0013b1:0013230000000000
#001381:000000000000000013000023000000000000000000000000
#001350:000000000000000000000013000000000000000000000000
#001320:0000000000230000
#002320:1323000000000000
#0023b0:0000132300000000
#0033a0:14
#003390:003400000000000000000000
#003380:003400000000
#003360:00240000
#003321:00140000
#003331:003400
#003341:000000000034000000000000
#003361:0024
#0033a0:00001424
#003321:0000000000142400
#0043b1:13
#004381:00230000
#004321:000000000000000000000013000000230000000000000000
#004380:0000000000130000
#0043b0:00000023
#005350:13
#005320:00230000
#005380:000000000000000000000013000023000000000000000000
#005321:000000000000001300000000
#005351:00000023
#005381:0000000000000013
#0063b1:23
#006320:13
#006350:00230000
#0063b0:000000000000000000000013000000230000000000000000
#006351:0000000000130000
#006321:00000023
#007381:13
#0073b1:000000330000333333330000
#0073a1:000000000000000000000000003300330033000000000000
#008381:22
#007350:00130000
#007320:000000000000333333330000
#007330:000000000000000000000000003300330033000000000000
#008360:3232003200320032
#009360:0032003200320032
#010360:22
#010381:1232003200320032
#011381:0032003200322200
#011340:000000000000000000000000000000000000000000000000000000000000000000000000000000000000000000000000125300530053005300540054005400540000000000000000000000000000000000000000000000000000000000000000
#011330:000000000000000000000000000000000000000000000000005353535300000000000000000000000000000000000000
#011320:000000000000000000000000000000000000000000000000000000000054545453535353260000000000000000000000
#011350:000000000000000000000000000000000000000000000000000000000000000000000000000000000000000000000000000000000000000000000000000000000053005300530053000000000000000000000000000000000000000000000000
#012320:000000000000000000000000000000000013000000230000
#0133b0:13
#013380:0023000000000000
#013351:0013000000000000
#013321:00230000
#014321:000000000000000000000000000000000013000000230000
#014380:0000000000000013
#015380:23
#0153b0:000000000000000000000000000000000000000000000000135353535353535353535353230000000000000000000000
#0153a0:000000000000000000000000000000000000000000000000000000000000000000000000000000000000000000000000005300530053005300530053005300530053005300530053000000000000000000000000000000000000000000000000
#015321:000000000000000000000000000000000000000000000000000000000000000000000000155555555555555555555555
#015331:000000000000000000000000000000000000000000000000000000000000000000000000000000000000000000000000000000000000000000000000000000000000000000000000005500550055005500550055005500550055005500550055
#016321:25
#018381:000000000000000000000000000000000013000000230000
#018350:0000000000000013
#019350:23
#019350:0013
#019340:000000000000000000000000000000000000000000000000000000000000000000000000000000000000000000000000000000000000000000000000000000000000000000000000000000000000000000000000000000000000000000000000005300000053000000530000005300000000000000000000000000000000000000000000000000000000000000000000000000000000000000000000000000000000000000000000000000000000000000000000000000000000000000000000
#019360:000000000000000000000000000000000000000000000000000000000000000000000000000000000000000000000000000000000000000000000000000000000000000000000000000000000000000000000000000000000000000000000000000000530000005300000053000000540000005400000054000000540000005500000055000000550000005500000055000000000000000000000000000000000000000000000000000000000000000000000000000000000000000000000000
#019330:000000000000000000000000000000000000000000000000000000000000000000000000000000000000000000000000000000000000000000000000000000000000000000000000000000000000000000000000000000000000000000000000000000000000000000000000000000000054000000540000005400000054000000000000000000000000000000000000000000000000000000000000000000000000000000000000000000000000000000000000000000000000000000000000
#019320:000000000000000000000000000000000000000000000000000000000000000000000000000000000000000000000000000000000000000000000000000000000000000000000000000000000000000000000000000000000000000000000000000000000000000000000000000000000000000000000000000000000000000000550000005500000055000000550000290000000000000000000000000000000000000000000000000000000000000000000000000000000000000000000000
#020380:1222
#020361:0012
#021361:22
#0213c0:1222
#021321:0012
#022321:22
#0223b0:1222
#022331:0012
#023331:22
#0233a0:1222
#023341:0012
#024321:26
#027381:000000000000000000000000000000000000000000000000000000000000000000000000000000000000000000000000000000000000000000000000000000000000000000000000000000000000000000000000000000000000000000000000000000000000000000000000000000000000000000000000000000000000000000000000000000000000000000000000000000000000000000000000000000000000000000000000000000000000000000000000000000000000000000000000000000000000000000000000000000000000000000000000000000000000000000000000000000000000000000000000000000000000000000000000000000000000000000000000000000000000000000000000000000000000000000000000000000000000000000000000000000000000000000000000000000000000000000000000000000000000000000000000000000000000000000000000000000000000000000000000000000000000000000000000000000000000000000000000000000000000000000000000000000000000000000000000000000000000000000000000000000000000000000000000000000000000000000000000000000000000000000000000000000000000000000000000000000000000000000000000000000000000000000000000000000000000000000000000000000000000000000000000000000000000000000000000000000000000000000000000000000000000000000000000000000000000000000000000000000000000000000000000000000000000000000000000000000000000000000000000000000000000000000000000000000000000000000000000000000000000000000000000000000000000000000000000000000000000000000000000000000000000000000000000000000000000000000000000000000000000000000000000000000000000000000000000000000000000000000000000000000000000000000000000000000000000000000000000000000000000000000000000000000000000000000000000000000000000000000000000000000000000000000000000000000000000000000000000000000000000000000000000000000000000000000000000000000000000000000000000000000000000000000000000000000000000000000000000000000000000000000000000000000000000000000000000000000000000000000000000000000000000000000000000000000000000000000000000000000000000000000000000000000000000000000000000000000000000000000000000001600000000000000000000000000000000000000000000000000000000000000000000000000000000000000000000000000000000000000000000000000000000000000000000000000000000000000000000000000000000000000000000000000000000000000000000000000000000000000000000000000000000000000000000000000000000000000000000000000000000000000000000000000000000000000000000000000000000000000000000000000000000000000000000000000000000000000000000000000000000000000000000000000000000000000000000000000000000000000000000000000000000000000000000000000000000000000000000000000000000000000000000000000000000000000000000000000000000000000000000000000000000000000000000000000000000000000000000000000000000000000000000000000000000000000000000000000000000000000000000000000000000000000000000000000000000000000000000000000000000000000000000000000000000000000000000000000000000000000000000000000000000000000000000000000000000000000000000000000000000000000000000000000000000000000000000000000000000000000000000000000000000000000000000000000000000000000000000000000000000000000000000000000000000000000000000000000000000000000000000000000000000000000000000000000000000000000000000000000000000000000000000000000000000000000000000000000000000000000000000000000000000000000000000000000000000000000000000000000000000000000000000000000000000000000000000000000000000000000000000000000000000000000000000000000000000000000000000000000000000000000000000000000000000000000000000000000000000000000000000000000000000000000000000000000000000000000000000000000000000000000000000000000000000000000000000000000000000000000000000000000000000000000000000000000000000000000000000000000000000000000000000000000000000000000000000000000000000000000000000000000000000000000000000000000000000000000000000000000000000000000000000000000000000000000000000000000000000000000000000000000000000000000000000000000000000000000000000000000000000000000000000000000000000000000000000000000000000000000000000
#0273c1:00000022
#027320:00000016
#028320:32
#028340:000000000000000000000000000000000000000000000000000000000000000000000000000000000000000000000000000000000000000000000000000000000000000000000000000000000000000000000000000000000000000000000000000000000000000000000000000000000000000000000000000000000000000000000000000000000000000000000000000000000000000000000000000000000000000000000000000000000000000000000000000000000000000000000000000000000000000000000000000000000000000000000000000000000000000000000000000000000000000000000000000000000000000000000000000000000000000000000000000000000000000000000000000000000000000000000000000000000000000000000000000000000000000000000000000000000000000000000000000000000000000000000000000000000000000000000000000000000000000000000000000000000000000000000000000000000000000000000000000000000000000000000000000000000000000000000000000000000000000000000000000000000000000000000000000000000000000000000000000000000000000000000000000000000000000000000000000000000000000000000054000000000000000000000000000000000000000000000000000000000000000000000000000000000000000000000000000000000000000000000000000000000000000000000000000000000000000000000000000000000000000000000000000000000000000000000000000000000000000000000000000000000000000000000000000000000000000000000000000000000000000000000000000000000000000000000000000000000000000000000000000000000000000000000000000000000000000000000000000000000000000000000000000000000000000000000000000000000000000000000000000000000000000000000000000000000000000000000000000000000000000000000000000000000000000000000000000000000000000000000000000000000000000000000000000000000000000000000000000000000000000000000000000000000000000000000000000000000000000000000000000000000000000000000000000000000000000000000000000000000000000000000000000000000000000000000000000000000000000000000000000000000000000000000000000000000000000000000000000000000000000000000000000000000000000000000000000000000000000000000000240000000000000000000000000000000000000000000000000000000000000000000000000000000000000000000000000000000000000000000000000000000000000000000000000000000000000000000000000000000000000000000000000000000000000000000000000000000000000000000000000000000000000000000000000000000000000000000000000000000000000000000000000000000000000000000000000000000000000000000000000000000000000000000000000000000000000000000000000000000000000000000000000000000000000000000000000000000000000000000000000000000000000000000000000000000000000000000000000000000000000000000000000000000000000000000000000000000000000000000000000000000000000000000000000000000000000000000000000000000000000000000000000000000000000000000000000000000000000000000000000000000000000000000000000000000000000000000000000000000000000000000000000000000000000000000000000000000000000000000000000000000000000000000000000000000000000000000000000000000000000000000000000000000000000000000000000000000000000000000000000000000000000000000000000000000000000000000000000000000000000000000000000000000000000000000000000000000000000000000000000000000000000000000000000000000000000000000000000000000000000000000000000000000000000000000000000000000000000000000000000000000000000000000000000000000000000000000000000000000000000000000000000000000000000000000000000000000000000000000000000000000000000000000000000000000000000000000000000000000000000000000000000000000000000000000000000000000000000000000000000000000000000000000000000000000000000000000000000000000000000000000000000000000000000000000000000000000000000000000000000000000000000000000000000000000000000000000000000000000000000000000000000000000000000000000000000000000000000000000000000000000000000000000000000000000000000000000000000000000000000000000000000000000000000000000000000000000000000000000000000000000000000000000000000000000000000000000000000000000000000000000000000000000000000000000000000000000000000000000000
#0283c1:12
#028381:000000000000000000000000000000000000000000000000000000000000000000000000000000000000000000000000000000000000000000000000000000000000000000000000000000000000000000000000000000000000000000000000000000000000000000000000000000000000000000000000000000000000000000000000000000000000000000000000000000000000000000000000000000000000000000000000000000000000000000000000000000000000000000000000000000000000000000000000000000000000000000000000000000000000000000000000000000000000000000000000000000000000000000000000000000000000000000000000000000000000000000000000000000000000000000000000000000000000000000000000000000000000000000000000000000000000000000000000000000000000000000000000000000000000000000000000000000000000000000000000000000000000000000000000000000000000000000000000000000000000000000000000000000000000000000000000000000000000000000000000000000000000000000000000000000000000000000000000000000000000000000000000000000000000000000000000000000000000000000000054000000000000000000000000000000000000000000000000000000000000000000000000000000000000000000000000000000000000000000000000000000000000000000000000000000000000000000000000000000000000000000000000000000000000000000000000000000000000000000000000000000000000000000000000000000000000000000000000000000000000000000000000000000000000000000000000000000000000000000000000000000000000000000000000000000000000000000000000000000000000000000000000000000000000000000000000000000000000000000000000000000000000000000000000000000000000000000000000000000000000000000000000000000000000000000000000000000000000000000000000000000000000000000000000000000000000000000000000000000000000000000000000000000000000000000000000000000000000000000000000000000000000000000000000000000000000000000000000000000000000000000000000000000000000000000000000000000000000000000000000000000000000000000000000000000000000000000000000000000000000000000000000000000000000000000000000000000000000000000000000240000000000000000000000000000000000000000000000000000000000000000000000000000000000000000000000000000000000000000000000000000000000000000000000000000000000000000000000000000000000000000000000000000000000000000000000000000000000000000000000000000000000000000000000000000000000000000000000000000000000000000000000000000000000000000000000000000000000000000000000000000000000000000000000000000000000000000000000000000000000000000000000000000000000000000000000000000000000000000000000000000000000000000000000000000000000000000000000000000000000000000000000000000000000000000000000000000000000000000000000000000000000000000000000000000000000000000000000000000000000000000000000000000000000000000000000000000000000000000000000000000000000000000000000000000000000000000000000000000000000000000000000000000000000000000000000000000000000000000000000000000000000000000000000000000000000000000000000000000000000000000000000000000000000000000000000000000000000000000000000000000000000000000000000000000000000000000000000000000000000000000000000000000000000000000000000000000000000000000000000000000000000000000000000000000000000000000000000000000000000000000000000000000000000000000000000000000000000000000000000000000000000000000000000000000000000000000000000000000000000000000000000000000000000000000000000000000000000000000000000000000000000000000000000000000000000000000000000000000000000000000000000000000000000000000000000000000000000000000000000000000000000000000000000000000000000000000000000000000000000000000000000000000000000000000000000000000000000000000000000000000000000000000000000000000000000000000000000000000000000000000000000000000000000000000000000000000000000000000000000000000000000000000000000000000000000000000000000000000000000000000000000000000000000000000000000000000000000000000000000000000000000000000000000000000000000000000000000000000000000000000000000000000000000000000000000000000000000000000000000
#029321:13
#029351:0023000000000000
#029380:0013000000000000
#0293b0:00230000
#029321:00130000
#029351:0000002300000000
#029380:0000001300000000
#0293b0:0023
#029321:00001323
#029351:0000000000330000
#0293b0:00000013
#029380:0000000000000033
#0303b0:23
#030321:13
#030351:0023000000000000
#0303b0:0013000000000000
#030380:00230000
#030350:001300
#030320:000000000000000000000023000000000000000000000000
#030320:0013
#030350:0000000000230000
#031320:13
#031350:005300230000000000000000000000000000000000000000
#031381:0013000000000000
#0313b1:000053230000000000000000
#031320:00130000
#031350:000000000000005300230000000000000000000000000000
#031381:0000001300000000
#0313b1:000000000053230000000000
#032351:13
#032321:005300230000000000000000000000000000000000000000
#032380:0013000000000000
#0323b0:000053230000000000000000
#032351:00130000
#032321:000000000000005300230000000000000000000000000000
#032380:0000001300000000
#0323b0:000000000053230000000000
#0333b0:13
#033380:0023000000000000
#033351:0013000000000000
#033321:00230000
#0333b0:00130000
#033380:0000002300000000
#033351:0000001300000000
#033321:0023
#0333b0:00001323
#033380:0000000000330000
#033321:00000013
#033351:0000000000000033
#034321:23
#0343b0:13
#034380:0023000000000000
#034321:0013000000000000
#034351:00230000
#034381:001300
#0343b1:000000000000000000000023000000000000000000000000
#0343b1:0013
#034381:0000000000230000
#0353b1:13
#035381:005300230000000000000000000000000000000000000000
#035350:0013000000000000
#035320:000053230000000000000000
#0353b1:00130000
#035381:000000000000005300230000000000000000000000000000
#035350:0000001300000000
#035320:000000000053230000000000
#037360:14
#0373b0:00230000
#037361:00140000
#037321:0023
#037341:00000018
#038371:22
#0393b1:13230000
#039361:0034000000000000
#039360:00142400
#039320:0000003300000000
#0393a1:0014
#039361:0000000000340000
#0393b1:00000033
#039371:0000000000000033
#0403b1:23
#040360:14
#040320:0023000000000000
#040361:0014000000000000
#0403b1:00230000
#0403b1:001300
#040361:000000000000000000000024000000000000000000000000
#040361:0014
#0403b1:0000000000230000
#0413b1:130053230000000000000000
#041361:005400340000000000000000000000000000000000000000
#041320:000000130053230000000000
#041360:000000000000005400340000000000000000000000000000
#042360:14
#042320:005300230000000000000000000000000000000000000000
#042361:0014000000000000
#0423b1:000053230000000000000000
#042360:00140000
#042320:000000000000005300230000000000000000000000000000
#042361:0000001400000000
#0423b1:000000000053230000000000
#042381:0000000000001326
#042350:00000013
#042320:0000000000000026
#043320:13230000
#043360:0034000000000000
#043361:00142400
#0433b1:0000003300000000
#043320:00001433
#043360:0000000000340033
#044320:23
#044361:14
#0443b1:0023000000000000
#044360:0014000000000000
#044320:00230000
#044320:001300
#044360:000000000000000000000024000000000000000000000000
#044360:0014
#044320:0000000000230000
#045320:130053230000000000000000
#045360:005400340000000000000000000000000000000000000000
#0453b1:000000130053230000000000
#045361:000000000000005400340000000000000000000000000000
#046381:0000000000001626
#046320:0000000000000016
#047320:26
#048320:001c
#049320:2c
#0503a0:14240000
#050360:0054000000000000
#050360:000000000000000000000014000000000000000000000000
#050320:0000000000230000
#0503b1:0000000000130000
#050381:00000023
#051361:14240000
#051321:0054000000000000
#0513b1:000000000000000000000013000000000000000000000000
#051361:000000000000002400000000
#051320:000000000000001400000000
#051360:00000024
#051360:0000000000000014
#0523a0:24
#052321:14240000
#052361:0054000000000000
#052361:000000000000000000000014000000000000000000000000
#0523b1:0000000000230000
#052320:0000000000130000
#052350:00000023
#053360:14
#0533b0:0053000000000000
#053380:00230000
#053351:000000000000000000000000000000000000000000000000130000000000000000000000000000000000000000000000005600560056005600560056005600560056005600560056000000000000000000000000000000000000000000000000
#053321:0000000000000000005300003c3c3c3c3c3c3c00005c0000
#053361:000000000000000000000000000000000000000000000000000000000000000000000000000000000000000000000054000000000000000000000000000000000000000000000000000000000000000000000000000000000000000000000000
#054371:520000000000000000000000000000000000000000000000520000005200000052000000000000005200005200000000520000520000520000520000520000000000000000000000000000000000000000000000520052005200000000000000
#054381:000000000000000000000000000000000000000000000000005200000052005200000000000000000000000052005200000052005200000000000052000000000000000000000000000000000000000000000000000000520000000000000000
#054361:000000000000000000000000000000000000000000000000000052000000520000000000000000000052000000000052005200000000005200005200000000000000000000000000000000000000000000000000005200000000000000000000
#054391:000000000000000000000000000000000000000000000000000000520000000000000000000000000000520000000000000000000000000052000000000000000000000000000000000000000000000000000000000000000000000000000000
#054351:000000000000000000000000000000000000000000000000000000000000000000000000000000000000000000520000000000000052000000000000000000000000000000000000000000000000000000000000000000000000000000000000
#055371:520052005200000000000000000000000000000000000000520000520000000052000000000000000000000052000000520000005200000000000000000000000000000000000000000000005200000000000000520052000052000052000000
#055381:005200000000000000000000000000000000000000000000005200000000005200000000000000000000000000000000000052000000000000000000000000000000000000000000000000000000005200000052000000520000005200000052
#055361:000000520000000000000000000000000000000000000000000000005200520000000000000000000000000000520052000000520000000000000000000000000000000000000000000000000000520000005200000000005200000000000000
#055351:000000000000000000000000000000000000000000000000000052000000000000000000000000000000000000000000005200000000000000000000000000000000000000000000000000000000000052000000000000000000520000005200
#055391:000000000000000000000000000000000000000000000000000000000052000000000000000000000000000000005200000000000000000000000000000000000000000000000000000000000052000000520000005200000000000000520000
#056371:520000000000000000000000000000000000000000000000520000005200000000000000000000000000000000000000000000000000000000000000000000000000000000000000520000520000000000000000220000000000000000000000
#056351:000000000000000000000000000000000000000000000000005200000000000000000000000000000000000000000000000000000000000000000000000000000000000000000000000000000000520000000000000000000000000000000000
#056391:000000000000000000000000000000000000000000000000000052000000000000000000000000000000000000000000000000000000000000000000000000000000000000000000005200000000000000520000000000000000000000000000
#056361:000000000000000000000000000000000000000000000000000000520000000000000000000000000000000000000000000000000000000000000000000000000000000000000000000000005200000052000000000000000000000000000000
#056331:000000000000000000000000000000000000000000000000000000000000000000000000005200000000000000000000
#0563a1:000000000000000000000000000000000000000000000000000000000000000000000000000000000000000000000000000000000000000000000000000000000000000000000000000000000052000000000000000000000000000000000000
#056381:000000000000000000000000000000000000000000000000000000000000000000000000000000000000000000000000000000000000000000000000000000000000000000000000000000000000005200000052000000000000000000000000
#056341:000000000000000000000000000000000000000000000000000000000000000000000000000000000052000000000000
