This file was generated by Ched 2.7.0.0.
#TITLE ""
#ARTIST ""
#DESIGNER ""
#DIFFICULTY 0
#PLAYLEVEL
#SONGID ""
#WAVE ""
#WAVEOFFSET 0
#JACKET ""
#REQUEST "ticks_per_beat 480"
#00002: 4
#BPM01: 112
#00008: 01
#TIL00: ""
#VOLUME: ""
#HISPEED 00
#MEASUREHS 00
#00415:0000130000000013
#00418:0000001300001300
#00412:0000000000130000
#0041a:24
#00515:0000001300001300
#0051b:1300000000130000
#00518:0000000000000013
#03018:00000013
#03015:0000000000000013
#03012:130000000000000000000013000000000000000000000000
#0301b:13
#03010:41
#03715:0013001300001300
#03718:0000130000130000
#03712:2323
#0371b:2323
#04015:0000000000000013
#0401a:14
#04014:14
#04012:000000000000000000000014000000000000000000000000
#04018:000000000000000000000014000000000000130000000000
#04712:0014000000000000
#0471a:0000001400000013
#04713:0000000000130000
#04718:2423
#04714:00240000
#04715:00000023
#00012:0000131300000000
#00018:00001313
#00015:0000000000130013
#0001b:2313000000000000
#0011b:13130000
#00112:0013000000000000
#00115:00000013
#00118:0000000000000013
#00212:1313000000000000
#0021b:0000131300000000
#00215:00001313
#00218:0000000000130013
#00312:2414
#00316:0000000000140000
#00313:003400000034000000000000
#00314:003434000000
#00618:0000130000000013
#00615:0000001300001300
#0061b:0000000000130000
#00612:24
#00610:41
#00818:00000013
#00812:00130000
#00815:0013
#00915:0013
#0091b:13
#00918:00130000
#00912:00000013
#0071a:00000014
#01015:00000013
#0101b:00130000
#01018:0013
#01112:13
#01115:00130000
#01215:1313
#0121b:0013001300130013
#01212:00230023
#01210:41
#01415:1300000000130000
#01418:0013000013000000
#0141b:0000001300000013
#01412:00230023
#01318:1313
#01312:0013001300130013
#0131b:00230023
#01518:13
#01515:0013000000000000
#01512:0000001300000000
#0151b:00230000
#01618:1313
#01612:0013001300130013
#0161b:00230023
#01818:1300000000130000
#01815:0013000013000000
#01812:0000001300000013
#0181b:00230023
#01810:41
#01715:1313
#0171b:0013001300130013
#01712:00230023
#02912:0014000013000000
#02918:0000140000130013
#02914:0000001400000000
#0291b:0013
#02915:00000013
#0291a:24
#0291f:21
#03114:0014000000000000
#03118:0000140000000013
#03112:0000001400000000
#03116:0014
#03115:00000013
#0311a:24
#03218:0014000000000000
#03214:00140000
#0321a:0000001400002400
#03212:1424
#03216:0000000000240000
#03415:00000013
#03418:0000000000000013
#0341b:130000000000000000000013000000000000000000000000
#03412:13
#0331a:0014000000000000
#03314:00140000
#03318:0000001400001300
#03312:2413
#0331b:0013
#03315:0000000000130013
#03518:0014000000160000
#03514:00140000
#0351a:0000001400000000
#03512:2416
#03917:0014000000000000
#0391b:0000000000130000
#03912:2400000014000013
#0391a:00140000
#03915:0000001400000000
#03918:0014
#03913:00000014
#03919:00000014
#04112:0014000000000000
#04116:00140000
#0411a:0000001400000000
#04114:0014
#04115:0000000000000013
#04118:24000013
#0421a:1424
#04216:0014001400240000
#04212:00140024
#04418:1400000000000013
#04412:14
#0441a:000000000000000000000014000000000000000000000000
#04414:000000000000000000000014000000000000000000000000
#04415:00000013
#04315:0014000000000000
#04312:0000140000130000
#0431b:0000000000000013
#04317:0000001400000000
#0431a:2414
#04314:0014
#04319:00000014
#04313:00000014
#04310:41
#0451a:0014000000000000
#04516:00140000
#04512:0000001400160000
#04518:0016
#04514:24
#04615:0000000000000013
#04618:00002613
#04612:00252600
#04619:25
#04814:0012000000000000
#0481a:0000001200000000
#04818:22
#04816:00222400
#05016:0014
#05012:2400001400000014
#0501a:2400000000140000
#05018:00130013
#05015:000000000013000000000000000000000013000000000000
#05010:41
#05112:1400000000140000
#0511a:1400001400000014
#05116:0014
#05115:00130013
#05118:000000000013000000000000000000000013000000000000
#05216:0014
#05212:2400001400000014
#0521a:2400000000140000
#05218:00130013
#05215:000000000013000000000000000000000013000000000000
#05312:00000014
#05316:0000000000000014
#0191a:14
#0191a:14
#01916:00140000
#01916:00140000
#01912:0014
#01912:0014
#02415:0013
#0241b:00130000
#02418:00000013
#02512:14
#0251a:00140000
#02514:0014
#02518:00000014
#02612:15
#02619:00150000
#02613:0015
#02618:00000015
#0201f:11
#0361a:0024
#03618:00240000
#03614:24
#03612:0024
#02814:0058
#03815:5979
#03818:00000053
#05412:5c
#01155:00000019
#0325a:00000014
#03252:14
#00352:00005414
#00356:0000000000640000
#0015b:00630000
#00158:000000000000000000000013000000000000000000000000
#0045a:14
#0055b:63
#00652:14
#0075a:00000064
#00858:13
#01055:13
#00952:00000053
#0295a:14
#03052:000000000000000000000053000000000000000000000000
#0315a:14
#03156:0014
#0345b:000000000000000000000063000000000000000000000000
#03552:1416
#03558:0000000000160000
#03352:14
#03654:14
#03658:00140000
#0365a:0014
#03652:0014
#03855:0069
#03952:14
#04052:000000000000000000000054000000000000000000000000
#04058:000000000000000000000054000000000000000000000000
#04154:0014
#04158:14
#0445a:000000000000000000000064000000000000000000000000
#04454:000000000000000000000064000000000000000000000000
#0435a:14
#04554:14
#04558:0016
#04552:0000000000160000
#04652:00151600
#04659:15
#04658:0016
#04758:1413
#04754:00140000
#04755:00000013
#04858:12
#04856:00120000
#0505a:14
#05052:14
#05352:00000054
#05356:0000000000000024
#01552:00000019
#0525a:14
#05252:14
#0195a:14
#01956:00140000
#01952:0014
#02455:0013
#0245b:00130000
#02458:00000013
#02452:13
#02552:14
#0255a:00140000
#02554:0014
#02558:00000014
#02652:15
#02659:00150000
#02653:0015
#02658:00000015
#04252:00000014
#0013b0:00130000
#001380:000000000000000000000023000000000000000000000000
#003320:14003424
#003330:003400000034000000000000
#003340:003434000000
#003360:0000340000340000
#0053b0:13
#005380:00230000
#007340:14240000
#007381:00142400
#007320:000000000000143434240000
#007330:000000000000000000000000003400340034000000000000
#0073a1:00000014
#008381:23
#009321:00000013
#010351:23
#011381:000000000000000000000000000000000000000000000000000000000000000000000000000000000000000000000000135400540054005400550055005500550056005600560056000000000000000000000000000000000000000000000000
#011371:000000000000000000000000000000000000000000000000005454545400000000000000000000000000000000000000
#011361:000000000000000000000000000000000000000000000000000000000055555555000000000000000000000000000000
#011351:000000000000000000000000000000000000000000000000000000000000000000565656290000000000000000000000
#015351:000000000000000000000000000000000000000000000000000000000000000000000000000000000000000000000000135400540054005400550055005500550056005600560056000000000000000000000000000000000000000000000000
#015341:000000000000000000000000000000000000000000000000005454545400000000000000000000000000000000000000
#015331:000000000000000000000000000000000000000000000000000000000055555555000000000000000000000000000000
#015321:000000000000000000000000000000000000000000000000000000000000000000565656290000000000000000000000
#020381:13
#0203b1:00330033
#021381:23
#021350:13
#021320:00330033
#022350:23
#0223b1:13
#022381:00330033
#0233b1:23
#023320:13
#023350:00330033
#024320:23
#027350:163636363636360000000000
#027360:00000034
#028340:380000000000383838383838280000000000000000000000
#030320:000000130000000000000033000000000000000000000000
#030350:000000000000330033000000000000230000000000000000
#0343b0:000000130000000000000033000000000000000000000000
#034380:000000000000330033000000000000230000000000000000
#037380:0000000000000013
#038350:29
#040320:000000140000000000000034000000000000000000000000
#040340:000000000000340034000000000000240000000000000000
#040381:000000140000000000000034000000000000000000000000
#0403a1:000000000000340034000000000000240000000000000000
#0443a1:000000140000000000000034000000000000000000000000
#044381:000000000000340034000000000000240000000000000000
#044340:000000140000000000000034000000000000000000000000
#044320:000000000000340034000000000000240000000000000000
#053380:14240000
#053341:00142400
#0533a0:000000000000143434240000
#053390:000000000000000000000000003400340034000000000000
#053321:00000014
#053361:0000000000000054
#054321:2c
#038950:1959
#038980:000000000000000000000000000000000000000000000000000000000000000000000000000000000000000000000000000000000000000000000000000000000000000000000000000000000000000000000000000000000000000000000000000000000000000000000000000000000000000000000000000000000000000000000000000000000000000000000000000000000000000000000000000000000000000000000000000000000000000000000000000000000000000000000000000000000000000000000000000000000000000000000000000000000000000000000000000000000000000000000000000000000000000000000000000000000000000000000000000000000000000000000000000000000000000000000000000000000000000000000000000000000000000000000000000000000000000000000000000000000000000000000000000000000000000000000000000000000000000000000000000000000000000000000000000000000000000000000000000000000000000000000000000000000000000000000000000000000000000000000000000000000000000000000000000000000000000000000000000000000000000000000000000000000000000000000000000000000000000000000000000000000000000000000000000000000000000000000000000000000000000000000000000000000000000000000000000000000000000000000000000000000000000000000000000000000000000000000000000000000000000000000000000000000000000000000000000000000000000000000000000000000000000000000000000000000000000000000000000000000000000000000000000000000000000000000000000000000000000000000000000000000000000000000000000000000000000000000000000000000000000000000000000000000000000000000000000000000000000000000000000000000000000000000000000000000000000000000000000000000000000000000000000000000000000000000000000000000000000000000000000000000000000000000000000000000000000000000000000000000000000000000000000000000000000000000000000000000000000000000000000000000000000000000000000000000000000000000000000000000000000000000000000000000000000000000000000000000000000000000000000000000000000000000000000000000000000000000000000000000000000000000000000000000000000000000000000000000000000000000000000000000000000000000000000000000000000000000000000000000000000000000000000000000000000000000000000000000000000000000000000000000000000000000000000000000000000000000000000000000000000000000000000000000000000000000000000000000000000000000000000000000000000000000000000000000000000000000000000000000000000000000000000000000000000000000000000000000000000000000000000000000000000000000000000000000000000000000000000000000000000000000000000000000000000000000000000000000000000000000000000000000000000000000000000000000000000000000000000000000000000000000000000000000000000000000000000000000000000000000000000000000000000000000000000000000000000000000000000000000000000000000000000000000000000000000000000000000000000000000000000000000000000000000000000000000000000000000000000000000000000000000000000000000000000000000000000000000000000000000000000000000000000000000000000000000000000000000000000000000000000000000000000000000000000000000000000000000000005353535353230000000000000000000000000000000000000000000000000000000000000000000000000000000000000000000000000000000000000000000000000000000000000000000000000000000000000000000000000000000000000000000000000000000000000000000000000000000000000000000000000000000000000000000000000000000000000000000000000000000000000000000000000000000000000000000000000000000000000000000000000000000000000000000000000000000000000000000000000000000000000000000000000000000000000000000000000000000000000000000000000000000000000000000000000000000000000000000000000000000000000000000000000000000000000000000000000000000000000000000000000000000000000000000000000000000000000000000000000000000000000000000000000000000000000000000000000000000000000000000000000000000000000000000000000000000000000000000000000000000000000000000000000000000000000000000000000000000000000000000000000000000000000000000000000000000000000000000000000000000000000000000000000000000000000000000000000000000000000000000000
#054920:1c
#056970:0000000000000022
