This file was generated by Ched 2.7.0.0.
#TITLE ""
#ARTIST ""
#DESIGNER ""
#DIFFICULTY 0
#PLAYLEVEL
#SONGID ""
#WAVE ""
#WAVEOFFSET 0
#JACKET ""
#REQUEST "ticks_per_beat 480"
#00002: 4
#BPM01: 112
#00008: 01
#TIL00: ""
#VOLUME: ""
#HISPEED 00
#MEASUREHS 00
#00818:0014
#00712:00000014
#02918:24140000
#02912:00001414
#02914:0014000000000000
#0291a:0000000000140000
#0291f:21
#04718:1600160000150000
#04712:0016000000000000
#04713:00001515
#0001a:14140000
#00012:00001414
#00118:14140000
#00114:00001414
#00314:14
#00318:00140000
#00914:14
#00918:0014
#01012:14
#0101a:0014
#01112:14
#0111a:0014
#01214:1414
#01218:00140000
#01210:41
#01318:1414
#01314:00140000
#01412:1414
#0141a:00140000
#0151a:1414
#01512:00140000
#01612:14
#01618:00140000
#01614:0014
#0171a:14
#01714:00140000
#01718:0014
#01814:14
#01818:00140000
#01812:0014
#01810:41
#0241a:14000014
#02416:00140000
#02412:0014
#02512:14000014
#02516:00140000
#0251a:0014
#0261a:14000014
#02616:00140000
#02612:0014
#02716:00000014
#02715:0034
#02714:00340000
#0311a:14141400
#03114:0014001400000000
#03116:00000014
#03018:14140000
#03014:0014000000000000
#03012:00000014
#03010:41
#03212:1400140000260000
#03218:0014000026002600
#03314:24140000
#0331a:00001414
#03318:0014000000000000
#03312:0000000000140000
#03514:14140000
#03518:0014001400260000
#03512:0026
#03414:14140000
#03418:0014000000000000
#0341a:00000014
#0391a:0000140000140000
#03912:0014
#03914:0014000000001400
#03918:24
#04118:14
#04112:0014000000000000
#0411a:0014
#04116:00000014
#04119:00140000
#04113:0000001400000000
#04018:14
#04014:0014000000001400
#0401a:00140000
#04212:1400000000260000
#04218:0014000026002600
#04214:00140000
#04512:1426
#0451a:0014000000000000
#04514:00140000
#04518:0000001400260000
#04312:0000140000140000
#0431a:0014
#04318:0014000000001400
#04314:24
#04310:41
#04414:14
#04418:0014000000001400
#04412:00140000
#04818:14
#04814:0014000000000000
#0201f:11
#0191a:0024
#01918:24
#01914:00240000
#01912:0024
#03619:24242500
#03613:24240000
#03612:0025
#04619:24242500
#04613:24240000
#04612:0025
#00610:41
#05010:41
#00752:00000054
#00854:14
#00354:00000014
#02756:00000064
#02852:14
#03058:00540000
#0305a:0014
#03454:00640000
#03452:0014
#04659:0015
#04652:0015
#0405a:00640000
#04058:0014
#04452:00540000
#04454:0014
#04858:0014
#0023a0:1434
#002380:00000024
#003340:0000000014342400
#004380:14
#0043a0:0024
#005340:14
#005320:0024
#0063a0:14
#006380:0024
#007320:14003434
#007340:00340000
#008340:24
#020380:14
#0203a0:0034
#021380:34
#0213a0:0024
#022340:14
#022320:0034
#023340:34
#023320:0024
#027320:14
#027340:00340000
#027350:0034
#027360:00000034
#028320:24
#030380:00140000
#0303a0:0024
#034340:00140000
#034320:0024
#0373a0:14
#037380:00240000
#037320:0014
#037340:00000024
#0403a0:00140000
#040380:0024
#044320:00140000
#044340:0024
#048380:00142400
#050380:14000024
#0503a0:00343400
#051340:14000024
#051320:00343400
#052380:14
#0523a0:00240000
#052340:0014
#052320:00000024
#0533a0:1400000034543400
#053380:00340000
#053390:00000000000000000054005400000000
#054350:56
#056360:0000000000000024
