This file was generated by Ched 2.7.0.0.
#TITLE ""
#ARTIST ""
#DESIGNER ""
#DIFFICULTY 0
#PLAYLEVEL
#SONGID ""
#WAVE ""
#WAVEOFFSET 0
#JACKET ""
#REQUEST "ticks_per_beat 480"
#00002: 4
#BPM01: 90
#00008: 01
#TIL00: ""
#VOLUME: ""
#HISPEED 00
#MEASUREHS 00
#0281f:11
#02819:0000000000130013
#02818:52000013
#0281a:0013
#0281b:0000001300000000
#02812:1300333333001600
#0061c:0000000000120000
#0061b:0013
#00612:1300333333001600
#00412:0000000013120000
#0041b:1300333333000000
#00418:00000016
#02315:0000001300130000
#0231b:13
#02312:13
#02318:0013
#01818:1300130000000013
#01815:0013000000001300
#01812:0000001300130000
#0181b:0000001300000000
#01712:00000013
#01715:00130013000013130000000000001300
#0171b:00000000000000130000000000000000
#01718:1313130000131300
#01615:0000001300000013
#01618:0000000000000000000000000000130000000000000000130000000000000000
#01612:1413
#01614:00130000
#01619:00130000
#0161a:14
#03916:00001300000000000000000000000013
#0391b:0000130000000013
#03912:0000001300001300
#03917:00000000000000130000000000000000
#03919:00130000000000000000000000000000
#03914:13
#0401b:00130000
#04014:0000000000000024
#04016:0000002400002400
#04018:0000000000240000
#0401a:0024
#0191b:1300001300000000
#01915:00130013
#01918:0013000000001300
#01912:1300001300000000
#03114:0000000000160000
#03113:1300001400000000
#03112:0013000000000000
#0311b:33130000
#01516:0012000000000012
#01514:1200001200000000
#01518:12000012
#0151a:0012000000120000
#0421b:33000013
#04218:0000001300000013
#04212:13000013
#04215:0000130000130000
#04418:0000001316000000
#0441b:1300130000130000
#04412:33130000
#04318:0000001300130000
#0431b:1300130000000013
#04312:1300333333001600
#04112:2400130000000013
#04115:0000000000130000
#0411b:1300333333000000
#04118:00000016
#04110:41
#03712:00000000000000001300000000000000000000000000000000000000000000000000000013000000000000000000000000000000000000000000000000160000
#0371b:23000000000000000013000000000000
#03715:00000000001300130000000000000000
#03718:00000000000000000000000000000000130000000000000013000000000000000000000000000000000000000000000000000000000000002200000000160000
#03716:0000000000000022
#0381b:00001300000000000000001300000000
#03812:00000000000000000013000000001300
#03814:00000000001300000000000000000000
#0381a:00130000
#03815:00000013000000000000000000000000
#03818:0013
#03819:0000001300000000
#03813:00000000000000130000000000000000
#03817:00000000000000000000000000000013
#03615:00000000000000000000130000000013
#03618:0000000013000013
#0361b:0000001300000000
#03617:13
#03612:13130013
#0351b:1300001300130000
#03512:13
#03515:0013000000000013
#03516:0000001300000000
#03518:00130013
#03412:13130000
#0341b:1300000000130000
#03415:0000001300000013
#03418:00001313
#03410:41
#0331b:0000001300001300
#03316:0000140000000014
#03312:0013000000000000
#0331f:21
#03318:26
#0321b:00000013
#03212:52000013
#03215:00000000000000001300130000000013
#03218:00000000000000000013000000001300
#03014:0000000000130013
#03015:00000013
#03013:0013
#03012:1300001300000000
#0301b:1300333333000000
#03018:00000016
#0291b:0000001300000013000000000000000000000000130000000000000000000000
#0291a:13131313000000000000000000000000
#02919:0013000000130000000000000000000000000000000000000000000000000000
#02915:0000001300000013
#02918:00001313
#02912:33
#02213:0013
#02212:13
#02214:0000000000000013
#02216:00000013
#02218:0000000000130000
#0221a:0013
#02215:0000001300000000
#02217:00130000
#02219:0013000000000000
#0221b:13
#02118:1300001300000013
#02115:0013000000001300
#02112:0000001300000000
#0211b:0013000000000000
#02015:0000001300000013
#02018:00130013
#0201b:0013000000000000
#02012:13
#02010:41
#01416:0012000000000012
#01418:00000012
#01414:12000000001200000000000000000000
#0141a:1212
#01410:41
#01319:00000012001200000000000000000000
#01316:12000012
#0131a:12
#01318:0000000000000012
#01315:00000012001200000000000000000000
#01313:0012
#01218:0012000000000012
#01216:00000012
#0121a:12000000001200000000000000000000
#01214:1212
#0091c:0000001200000000
#00916:1200121200001200
#0091a:00000012
#00918:0000000000000012
#01014:0012001200000000
#0101a:0000000000120000
#01018:0012001200001200
#01016:1200000000000012
#0111a:0000001200000000
#01118:12120012
#01116:0012001200000012
#01114:12
#00814:0000000000121200
#0081a:0000121200000012
#00816:12
#00818:22000012
#00810:41
#00712:13331600
#00714:0000000000000013
#00719:0000000000000013
#0241a:24
#02412:24
#0241b:0000000000000052
#02419:00000052
#02417:0000000000520000
#02415:0052
#02413:0000005200000000
#0051b:33
#02610:41
#02614:0000000000000052
#02616:00000052
#02618:0000000000520000
#0261a:0052
#0261c:0000005200000000
#02514:0000005200000052
#0251a:00000052
#02518:0000005200520000
#02516:0052
#02517:0052000000000000
#02519:52
#0271c:00000052
#0271a:0000000052000052
#02716:00520052
#02718:0000005200000000
#02714:0052000000000000
#02712:52
#04456:0000000000000012
#04458:0000000056000012
#0445b:0000000000230000
#04452:00230000
#03758:00000000000000000000000000000000000000000000000000000000000000000000000000000000000000001300000000000000000000005200000000260000
#03755:00000000000000630000001300000000
#03756:0000000000000062
#0375b:13000000000000000063000000000000
#03752:00000000000000000000000000000000000000000000000000000000000000000000000053000000000000000000000000000000000000000000000000260000
#03856:00000000000000000000001300000000
#03854:12
#0385a:12
#0385b:00000000000000000000006300000000
#03852:00000000000000000053000000000000
#02557:0062000000000000
#0275a:0052
#02858:12
#02852:23000066
#0245a:14
#02452:14
#03358:16
#04152:14
#0415b:23
#04158:00000056
#00858:12
#0085a:0000006200000000
#00856:62
#0065c:0000000000220000
#0065b:0053
#00652:23000066
#00452:0000000063220000
#0045b:23
#00458:00000056
#02355:0000000000630000
#0235b:63
#01755:00000000000000630000000000000000
#01758:00530053
#01655:0000000000000063
#01658:0000000000000000000000000000000000000000000000530000000000000000
#01652:1453
#0165a:14
#03956:00006300000000000000000000000063
#03952:00000053
#03957:00000000000000530000000000000000
#0395b:00630000
#0195b:0000005300000000
#01958:00000053
#01952:0000006300000000
#03154:0000000000660000
#0315b:00230000
#04352:23000066
#03657:53
#0345b:63
#0305b:23
#03058:00000056
#0295b:0000002300000023000000000000000000000000000000000000000000000000
#0295a:63536353000000000000000000000000
#02959:0023000000230000000000000000000000000000000000000000000000000000
#02158:0000005300000000
#02055:0000006300000000
#02052:13
#0185b:0000006300000000
#01554:0000005200000000
#0155a:0062000000000000
#01454:00000000005200000000000000000000
#01359:00000000006200000000000000000000
#0125a:00000000006200000000000000000000
#01054:0000005200000000
#00752:2366
#03556:0000006300000000
#004320:1353535353535353535353000000000053000000520000005300000000000000
#004330:00530053005300530053005300530053005300530000000000000000000000000000000000000000000000000000000000000000000000000000000000000000
#005320:0000000000000000000000000000000053535353535353005353535353000000
#005330:00000000000000000000000000000000000000000000000000000000000000000053005300530053005300530000000000530053005300530000000000000000
#006320:3300333333003600
#007320:33333623
#0043b1:1300333333000000
#004381:00000036
#0053b1:33530000
#0063b1:5353535353535353535353000000000053000000000000005300000000000000
#0063a1:00530053005300530053005300530053005300530000000000000000000000000000000000000000000000000000000000000000000000000000000000000000
#0063c1:0000000000520000
#0073b1:0000000000000000000000000000000053535353535353532300000000000000
#0073a1:00000000000000000000000000000000000000000000000000000000000000000053005300530053005300530053005300000000000000000000000000000000
#008361:12
#008341:0000002200000000
#0083a0:0000001200000000
#008380:0000000000220000
#0093c0:12220000
#010340:0000001200000000
#010360:0000000000220000
#012360:00000012002200000000000000000000
#0123a1:00000000001200000000000000000000
#012381:0022
#013391:00000000001200000000000000000000
#013371:0022
#014381:00000012002200000000000000000000
#014340:00000000001200000000000000000000
#014360:0022
#0153a0:0012000000000000
#015380:0000002200000000
#015341:0000001200000000
#015361:0000000000220000
#016321:0013
#016351:0000000000230000
#0163b0:0000000000130023
#016380:0000000000000000000000000000000000000000000000330000000000000000
#016351:0000000000000013
#017321:23
#017381:00130000
#0173b1:0000002300000000
#017351:00000000000000130000000000000000
#017321:0000000000230000
#017381:00000013
#0173b1:0000000000000023
#0183b1:0000001300000000
#018381:0000000000230000
#0193b1:0000001300000000
#0193c1:0000000000220000
#019320:0000001300220000
#019380:00000013
#0203b0:23
#020350:0000001300000000
#020320:00000023
#021380:0000001300000000
#0213b0:00000023
#0233b0:13
#023380:0000002300000000
#023350:0000000000130000
#024320:24
#028320:1300333333003600
#029320:33230000
#0293a1:13535353230000000000000000000000
#029391:0053000000530000000000000000000000000000000000000000000000000000
#0293b1:0000005300000053000000000000000000000000000000000000000000000000
#0303b1:1300333333000000
#030381:00000036
#0313b1:33330000
#0313a1:0000000000240000
#031340:0000000000160000
#032320:22
#033360:00000000000000000000000000000000000000000000000014000000000054005400005400540000000054005400000024000000000000000000000000000000
#033340:00000000000000000000000000000000000000000000000000000000000000550000000000000000000000550000000000000000000000000000000000000000
#033370:00000000000000000055000000000000
#0343b0:13
#034370:00230000
#035360:0000001300000000
#035320:0000000000230000
#036370:13
#0363b0:00230000
#037350:00000000000000130000002300000000
#037320:00000000000000000033000000000000
#0373b1:00000000000000000013000000000000
#037381:00000000000000000000002300000000
#037361:0000000000000012
#037321:00000000000000000000000000000000000000000000000000000000000000000000000000000000000000000000000000000000000000000000000000560000
#038341:22
#037380:00000000000000000000000000000000000000000000000000000000000000000000000000000000000000000000000000000000000000001200000000560000
#0383a0:22
#038320:00000000000000000013000000000000
#038360:00000000000000000000002300000000
#0383b1:00000000000000000000001300000000
#038371:0000000000000023
#039361:0013000000000000
#039321:00230000
#0393b0:00130000
#039370:0000002300000000
#039370:00000000000000130000000000000000
#0393b0:00000023
#039321:00000013
#039361:0000000000000023
#039361:00000000000000000000000000000013
#040321:00230000
#0413b1:1300333333000000
#041381:00000036
#0423b1:33230000
#043321:1300333333003600
#044321:33332600
#044380:0000000016003222
#0443b0:0000000000530000
#044361:0000000000001222
#025970:0012000000000000
#025940:000000000000000000000000000000000000000000000000000000000000000000000000000000000000000000000000000000000000000000000000000000000000000000000000000000000000000000000000000000000000000000000000000000000000000000000000000000000000000000000000000000000000000000000000000000000000000000000000000000000000000000000000000000000000000000000000000000000000000000000000000000000000000000000000000000000000000000000000000000000000000000000000000000000000000000000000000000000000000000000000000000000000000000000000000000000000000000000000000000000000000000000000000000000000000000000000000000000000000000000000000000000000000000000000000000000000000000000000000000000000000000000000000000000000000000000000000000000000000000000000000000000000000000000000000000000000000000000000000000000000000000000000000000000000000000000000000000000000000000000000000000000000000000000000000000000000000000000000000000000000000000000000000000000000000000000000000000000000000000000000000000000000000000000000000000000000000000000000000000000000000000000000000000000000000000000000000000000000000000000000000000000000000000000000000000000000000000000000000000000000000000000000000000000000000000000000000000000000000000000000000000000000000000000000000000000000000000000000000000000000000000000000000000000000000000000000000000000000000000000000000000000000000000000000000000000000000000000000000000000000000000000000000000000000000000000000000000000000000000525252220000000000000000000000000000000000000000000000000000000000000000000000000000000000000000000000000000000000000000000000000000000000000000000000000000000000000000000000000000000000000000000000000000000000000000000000000000000000000000000000000000000000000000000000000000000000000000000000000000000000000000000000000000000000000000000000000000000000000000000000000000000000000000000000000000000000000000000000000000000000000000000000000000000000000000000000000000000000000000000000000000000000000000000000000000000000000000000000000000000000000000000000000000000000000000000000000000000000000000000000000000000000000000000000000000000000000000000000000000000000000000000000000000000000000000000000000000000000000000000000000000000000000000000000000000000000000000000000000000000000000000000000000000000000000000000000000000000000000000000000000000000000000000000000000000000000000000000000000000000000000000000000000000000000000000000000000000000000000000000000000000000000000000000000000000000000000000000000000000000000000000000000000000000000000000000000000000000000000000000000000000000000000000000000000000000000000000000000000000000000000000000000000000000000000000000000000000000000000000000000000000000000000000000000000000000000000000000000000000000000000000000000000000000000000000000000000000000000000000000000000000000000000000000000000000000000000000000000000000000000000000000000000000000000000000000000000000000000000000000000000000000000000000000000000000000000000000000000000000000000000000000000000000000000000000000000000000000000000000000000000000000000000000000000000000000000000000000000000000000000000000000000000000000000000000000000000000000000000000000000000000000000000000000000000000000000000000000000000000000000000000000000000000000000000000000000000000000000000000000000000000000000000000000000000000000000000000000000000000000000000000000000000000000000000000000000000000000000000000000000000000000000000000000000000000000000000000000000000000000000000000000000000000000000000000000000000000000000000000000000000000000000000000000000000000000000000000000000000000000000000000000000000000000000000000000000000000000000000000000000000000000000000000000000000000000000000000000000000000000000000000000000000000000000000000000000000000000000000000000000000000000000000000000000000000000000000000000000000000000000000000000000000000000000000000000000000000000000000000000000
#0279a0:0012
#0279c0:000000000000000000000000000000000000000000000000000000000000000000000000000000000000000000000000000000000000000000000000000000000000000000000000000000000000000000000000000000000000000000000000000000000000000000000000000000000000000000000000000000000000000000000000000000000000000000000000000000000000000000000000000000000000000000000000000000000000000000000000000000000000000000000000000000000000000000000000000000000000000000000000000000000000000000000000000000000000000000000000000000000000000000000000000000000000000000000000000000000000000000000000000000000000000000000000000000000000000000000000000000000000000000000000000000000000000000000000000000000000000000000000000000000000000000000000000000000000000000000000000000000000000000000000000000000000000000000000000000000000000000000000000000000000000000000000000000000000000000000000000000000000000000000000000000000000000000000000000000000000000000000000000000000000000000000000000000000000000000000000000000000000000000000000000000000000000000000000000000000000000000000000000000000000000000000000000000000000000000000000000000000000000000000000000000000000000000000000000000000000000000000000000000000000000000000000000000000000000000000000000000000000000000000000000000000000000000000000000000000000000000000000000000000000000000000000000000000000000000000000000000000000000000000000000000000000000000000000000000000000000000000000000000000000000000000000000000000000000000000000000000000000000000000000000000000000000000000000000000000000000000000000000000000000000000000000000000000000000000000000000000000000000000000000000000000000000000000000000000000000000000000000000000000000000000000000000000000000000000000000000000000000000000000000000000000000000000000000000000000000000000000000000000000000000000000000000000000000000000000000000000000000000000000000000000000000000000000000000000000000000000000000000000000000000000000000000000000000000000000000000000000000000000000000000000000000000000000000000000000000000000000000000000000000000000000000000000000000000000000000000000000000000000000000000000000000000000000000000000000000000000000000000000000000000000000000000000000000000000000000000000000000000000000000000000000000000000000000000000000000000000000000000000000000000000000000000000000000000000000000000000000000000000000000000000000000000000000000000000000000000000000000000000000000000000000000000000000000000000000000000000000000000000000000000000000000000000000000000000000000000000000000000000000000000000000000000000000000000000000000000000000000000000000000000000000000000000000000000000000000000000000000000000000000000000000000000000000000000000000000000000000000000000000000000000000000000000000000000000000000000000000000000000000000000000000000000000000000000000000000000000000000000000000000000000000000000000000000000000000000000000000000000000000000000000000000000000000000000000525252220000000000000000000000000000000000000000000000000000000000000000000000000000000000000000000000000000000000000000000000000000000000000000000000000000000000000000000000000000000000000000000000000000000000000000000000000000000000000000000000000000000000000000000000000000000000000000000000000000000000000000000000000000000000000000000000000000000000000000000000000000000000000000000000000000000000000000000000000000000000000000000000000000000000000000000000000000000000000000000000000000000000000000000000000000000000000000000000000000000000000000000000000000000000000000000000000000000000000000000000000000000000000000000000000000000000000000000000000000000000000000000000000000000000000000000000000000000000000000000000000000000000000000000000000000000000000000000000000000000000000000000000000000000000000000000000000000000000000000000000000000000000000000000000000000000000000000000000000000000000000000000000000000000000000000000000000000000000000000000000
