This file was generated by Ched 2.7.0.0.
#TITLE ""
#ARTIST ""
#DESIGNER ""
#DIFFICULTY 0
#PLAYLEVEL
#SONGID ""
#WAVE ""
#WAVEOFFSET 0
#JACKET ""
#REQUEST "ticks_per_beat 480"
#00002: 4
#BPM01: 90
#00008: 01
#TIL00: ""
#VOLUME: ""
#HISPEED 00
#MEASUREHS 00
#00718:0000000000000013
#00712:33130000
#00714:0013
#03615:00000000000000000000000013000013
#0361b:0000001300000000
#03618:0000000000130013
#03612:1313
#0351b:1300000000130000
#03515:00130013
#03518:0013000000000013
#03512:0000001300000000
#01615:0000001300000000
#01612:13
#01618:00131300
#0161b:0000000000000000000000000000000000000000330000330000000000000000
#00418:00000013
#0041b:1300333333000000
#00818:00130013
#00815:2300001300000013
#00810:41
#01215:13000000001300000000000000001300
#01218:0013000000001300
#0151b:0013000000000000
#01512:13
#01518:0000001300000013
#01515:00000013
#01715:1300130000000013
#01718:0013000000001300
#01712:00000000000033330000000000000000
#0181b:1300000000130000
#01812:0013000000000000
#01818:0000130000000013
#01815:0000001300001300
#02015:1300000000000013
#0201b:0013000000000000
#02012:00130000
#02018:0000001300000000
#02010:41
#0211b:0013000000000000
#02118:13
#02117:0000000000000013
#02115:0000001300000000
#02214:13000013
#02219:0013000000130000
#02216:00131300
#0221b:0000001300000000
#02217:0000000000000013
#02315:0013
#02312:13
#02318:0000001300130000
#0191b:0000001300000000
#01912:13
#01918:0013000000000000
#01915:00130000
#02812:0000001300000000
#02817:0013
#02814:0000000000130000
#02819:00000013
#02816:0000000000000013
#0281f:11
#02818:53
#0291a:14141414000000000000000000000000
#02919:0015000000150000000000000000000000000000000000000000000000000000
#0291b:0000001300000013000000000000000000000000000000001300000000000000
#02915:0000001300000013
#02918:0013
#02912:0000000000130000
#00615:00000013
#00612:1300333333000000
#00915:0000001300000013
#0091b:00000013
#01018:13
#01012:0013000000000000
#0101b:0000001300000013
#01015:00000013
#01112:13000013
#01118:0013000000000000
#01115:00130000
#0111b:0000001300000013
#0131b:13000013
#01312:13000000001300000000000000001300
#01418:13000000001300000000000000001300
#01415:0013000000001300
#01410:41
#02412:13
#0241a:24
#02415:0000005353535353
#0261b:13
#02610:41
#02618:0000005353535353
#03018:13
#03012:0000001300000000
#03013:0000000000130000
#03019:00000013
#03014:0000000000000013
#0301a:0013
#03118:1300000000130000
#03115:0013000000130000
#03215:00130000
#03218:0000001300000000
#0321b:5313
#03216:0000000000130000
#03219:00000013
#03214:0000000000000013
#03212:53
#03712:0013000000000000
#03718:23000000000000130000000000000000
#03715:0000000000000013
#0371b:00000000000000000033000000000000
#03412:0000001300000000
#03419:00000013
#03416:0000000000000013
#03417:0013
#03414:0000000000130000
#0341b:13
#03410:41
#03312:0013000000000000
#0331b:00000013
#03317:00130000
#03316:0000000000000013
#03315:26
#0331f:21
#03818:1300000000000013
#03815:00000000003333130000000000000013
#03812:00000000000000000013000000000000
#03813:00000033000000000000000000000000
#03814:00330000
#03918:13001300000013000000000000000013
#03915:00130000000000130000000000001300
#03912:00130000
#0391b:00000013
#0411b:00000013
#04118:1300333333000000
#04110:41
#04413:0013
#04415:33130000
#04315:1300333333000000
#04312:00000013
#04012:0000002400000024
#04016:00002424
#0401a:0000000000240000
#0051b:33
#04218:33
#02515:5353000000000000
#02512:0000005353535353
#02718:5353000000005353
#02719:00530000
#0271a:0000005300000000
#0271b:0053
#00855:1300006300000000
#01652:13
#01658:0053
#00458:00000053
#0045b:63
#01255:00000000006300000000000000000000
#0155b:0063000000000000
#01558:0000005300000000
#01755:00630000
#0195b:0000006300000000
#02352:53
#0295a:64546454000000000000000000000000
#02959:0025000000250000000000000000000000000000000000000000000000000000
#0295b:0000002300000023000000000000000000000000000000000000000000000000
#00655:00000063
#00652:53
#00752:00530000
#00754:0063
#0105b:0000006300000000
#01352:00000000005300000000000000000000
#01458:00000000005300000000000000000000
#02058:0000005300000000
#02155:0000006300000000
#02858:13
#03058:53
#03158:0000000000530000
#03155:0000000000630000
#03652:53
#03758:13000000000000530000000000000000
#0375b:00000000000000000000001300000000
#0345b:63
#03355:16
#03858:13
#03855:00000000000000630000001300000000
#03852:00000000000000000053000000000000
#03955:00000000000000630000000000000000
#03958:00000000000000000000000000000053
#0415b:00000063
#04158:53
#04453:0053
#04455:0000630000000013
#04355:63
#04352:00000053
#0043b0:1300333333000000
#004380:00000033
#0053b0:33230000
#006320:1300333333000000
#006350:00000033
#007320:33330023
#007340:0033
#008350:0000001300000000
#008320:0000000000230000
#0093b0:13230000
#0103b0:0000001300000000
#010380:0000000000230000
#012350:00000013003300000000000000000000
#012320:0023
#013320:00000013003300000000000000000000
#013350:0023
#014380:00000013003300000000000000000000
#0143b0:0023
#0153b0:0013000000230000
#015380:0000003300000000
#016380:0013
#0163b0:0000000000000000000000000000000000000000330000330000000023000000
#017350:00130000
#017320:00000000000033330000230000000000
#0193b0:0000001300000000
#019380:00000023
#020380:0000001300000000
#0203b0:00000023
#021350:0000001300000000
#021320:00000023
#023320:13
#023350:00230000
#0293a0:14545454240000000000000000000000
#029390:0055000000550000000000000000000000000000000000000000000000000000
#0293b0:0000005300000053000000000000000000000000000000000000000000000000
#030380:13
#0303b0:00230000
#031380:0000001300330000
#0323b0:23
#031351:0000000000130000
#032321:23
#033321:00000000000000000000000000000000000000000000000013535453000053555300005354530000230000000000000000000000000000000000000000000000
#0343b1:13
#034371:00230000
#036321:13
#036361:00230000
#0373b1:00000000130000000033002300000000
#0373a1:00000000003300000000000000000000
#037391:0000003300000000
#037381:00000000000000330000000000000000
#038321:00001300000000000033000000000000
#038331:00000033000000000000000000000000
#038341:00330000
#038351:00000000003333330000002300000000
#039351:00000000000000130000000000000000
#039321:0000000000230000
#039381:00000000000000000000000000000013
#0403b1:00230000
#041381:1300333333000000
#0413b1:00000033
#042381:33230000
#043351:1300333333000000
#043321:00000033
#044351:3300330000003323
#044331:0033
#024920:13
#024950:0000005300000000
#025950:0053000000000000
#025920:000000000000000000000000000000000000000000000000000000000000000000000000000000000000000000000000000000000000000000000000000000000000000000000000000000000000000000000000000000000000000000000000000000000000000000000000000000000000000000000000000000000000000000000000000000000000000000000000000000000000000000000000000000000000000000000000000000000000000000000000000000000000000000000000000000000000000000000000000000000000000000000000000000000000000000000000000000000000000000000000000000000000000000000000000000000000000000000000000000000000000000000000000000000000000000000000000000000000000000000000000000000000000000000000000000000000000000000000000000000000000000000000000000000000000000000000000000000000000000000000000000000000000000000000000000000000000000000000000000000000000000000000000000000000000000000000000000000000000000000000000000000000000000000000000000000000000000000000000000000000000000000000000000000000000000000000000000000000000000000000000000000000000000000000000000000000000000000000000000000000000000000000000000000000000000000000000000000000000000000000000000000000000000000000000000000000000000000000000000000000000000000000000000000000000000000000000000000000000000000000000000000000000000000000000000000000000000000000000000000000000000000000000000000000000000000000000000000000000000000000000000000000000000000000000000000000000000000000000000000000000000000000000000000000000000000000000000000000000000000000530000000000000000000000000000000000000000000000000000000000000000000000000000000000000000000000000000000000000000000000000000000000000000000000000000000000000000000000000000000000000000000000000000000000000000000000000000000000000000000000000000000000000000000000000000000000000000000000000000000000000000000000000000000000000000000000000000000000000000000000000000000000000000000000000000000000000000000000000000000000000000000000000000000000000000000000000000000000000000000000000000000000000000000000000000000000000000000000000000000000000000000000000000000000000000000000000000000000000000000000000000000000000000000000000000000000000000000000000000000000000000000000000000000000000000000000000000000000000000000000000000000000000000000000000000000000000000000000000000000000000000000000000000000000000000000000000000000000000000000000000000000000000000000000000000000000000000000000000000000000000000000000000000000000000000000000000000000000000000000000000000000000000000000000000000000000000000000000000000000000000000000000000000000000000000000000000000000000000000000000000000000000000000000000000000000000000000000000000000000000000000000000000000000000000000000000000000000000000000000000000000000000000000000000000000000000000000000000000000000000000000000000000000000000000000000000000000000000000000000000000000000000000000000000000000000000000000000000000000000000000000000000000000000000000000000000000000000000000000000000000000000000000000000000000000000000000000000000000000000000000000000000000000000000000000000000000000000000000000000000000000000000000000000000000000000000000000000000000000000000000000000000000000000000000000000000000000000000000000000000000000000000000000000000000000000000000000000000000000000000000000000000000000000000000000000000000000000000000000000000000000000000000000000000000000000000000000000000000000000000000000000000000000000000000000000000000000000000005353535353230000000000000000000000000000000000000000000000000000000000000000000000000000000000000000000000000000000000000000000000000000000000000000000000000000000000000000000000000000000000000000000000000000000000000000000000000000000000000000000000000000000000000000000000000000000000000000000000000000000000000000000000000000000000000000000000000000000000000000000000000000000000000000000000000000000000000000000000000000000000000000000000000000000000000000000000000000000000000000000000
#0269b0:13
#026980:0000005300000000
#027980:000000000000000000000000000000000000000000000000000000000000000000000000000000000000000000000000000000000000000000000000000000000000000000000000000000000000000000000000000000000000000000000000000000000000000000000000000000000000000000000000000000000000000000000000000000000000000000000000000000000000000000000000000000000000000000000000000000000000000000000000000000000000000000000000000000000000000000000000000000000000000000000000000000000000000000000000000000000000000000000000530000000000000000000000000000000000000000000000000000000000000000000000000000000000000000000000000000000000000000000000000000000000000000000000000000000000000000000000000000000000000000000000000000000000000000000000000000000000000000000000000000000000000000000000000000000000000000000000000000000000000000000000000000000000000000000000000000000000000000000000000000000000000000000000000000000000000000000000000000000000000000000000000000000000000000000000000000000000000000000000000000000000000000000000000000000000000000000000000000000000000000000000000000000000000000000000000000000000000000000000000000000000000000000000000000000000000000000000000000000000000000000000000000000000000000000000000000000000000000000000000000000000000000000000000000000000000000000000000000000000000000000000000000000000000000000000000000000000000000000000000000000000000000000000000000000000000000000000000000000000000000000000000000000000000000000000000000000000000000000000000000000000000000000000000000000000000000000000000000000000000000000000000000000000000000000000000000000000000000000000000000000000000000000000000000000000000000000000000000000000000000000000000000000000000000000000000000000000000000000000000000000000000000000000000000000000000000000000000000000000000000000000000000000000000000000000000000000000000000000000000000000000000000000000000000000000000000000000000000000000000000000000000000000000000000000000000000000000000000000000000000000000000000000000000000000000000000000000000000000000000000000000000000000000000000000000000000000000000000000000000000000000000000000000000000000000000000000000000000000000000000000000000000000000000000000000000000000000000000000000000000000000000000000000000000000000000000000000000000000000000000000000000000000000000000000000000000000000000000000000000000000000000000000000000000000000000000000000000000000000000000000000000000000000000000000000000000000000000000000000000000000000000000000000000000000000000000000000000000000000000000000000000000000000000000000000000000000000000000000000000000000000000000000000000000000000000000000000000000000000000000000000000000000000000000000000000000000000000000000000000000000000000000000000000000000000000000000000000000000000000000000000000000000000000000000000000000000000000000000000000000000000000000000000000000000000000000000000000000000000000000000000000000000000000000000000000000000000000000000000530000000000000000000000000000000000000000000000000000000000000000000000000000000000000000000000000000000000000000000000000000000000000000000000000000000000000000000000000000000000000000000000000000000000000000000000000000000000000000000000000000000000000000000000000000000000000000000000000000000000000000000000000000000000000000000000000000000000000000000000000000000000000000000000000000000000000000000000000000000000000000000000000000000000000000000000000000000000000000000000000000000000000000000000000000000000000000000000000000000000000000000000000000000000000000000000000000000000000000000000000000000000000000000000000000000000000000000000000000000000000000000000000000000000000000000000000000000000000000000000000000000000000000000000000000000000000000000000000000000000000000000000000000000000000000000000000000000000000000000000000000000000000000000000000000000000000000000000000000000000000000000000000000000000000000000000000000000000005353535353
#0279b0:0053
#028980:23
