This file was generated by Ched 2.7.0.0.
#TITLE ""
#ARTIST ""
#DESIGNER ""
#DIFFICULTY 0
#PLAYLEVEL
#SONGID ""
#WAVE ""
#WAVEOFFSET 0
#JACKET ""
#REQUEST "ticks_per_beat 480"
#00002: 4
#BPM01: 90
#00008: 01
#TIL00: ""
#VOLUME: ""
#HISPEED 00
#MEASUREHS 00
#00812:0014
#0081a:24
#00810:41
#0101a:0014
#01012:14
#0121a:14
#01212:0014
#0131a:14
#01312:0014
#01418:14
#01414:0014
#01410:41
#01518:14
#01514:0014
#0221a:14
#02212:0014
#02318:14
#02314:0014
#02818:14
#02814:0014
#0281f:11
#0291a:14
#02912:0014
#03018:14
#03014:0014
#0311a:14
#03112:0014
#03218:0014
#03214:00000014
#03216:54
#03314:00140000
#03318:0014
#03312:00000014
#0331a:24
#0331f:21
#03414:0014
#03418:00000014
#03410:41
#03518:00140000
#03514:0014
#0351a:00000014
#03512:14
#03618:0014
#03614:00000014
#03716:00140000
#03712:0014
#0371a:14
#03718:00000014
#03814:00000014
#03816:00140000
#0381a:0014
#03812:14
#03912:0014
#03918:14000014
#04312:0014
#04314:14
#04412:0018
#0411a:0014
#04118:14
#04110:41
#04218:14
#04014:1400000000240024
#04018:00002424
#0241a:14
#02612:14
#02610:41
#02010:41
#0335a:14
#03152:0054
#04352:0054
#04354:64
#04452:0058
#0415a:0064
#04158:54
#04258:54
#03958:54
#04054:64
#0245a:64
#02652:54
#004380:14
#0053a0:24
#006340:14
#007320:24
#009380:1424
#011340:1424
#016380:14
#0163a0:0034
#0173a0:34
#017380:0024
#018340:14
#018320:0034
#019320:34
#019340:0024
#0203a0:14
#020380:0024
#021320:14
#021340:0024
#0243a0:14
#025380:34
#0253a0:0024
#026320:14
#027340:34
#027320:0024
#031320:0014
#032360:24
#0343a0:14240000
#036320:14240000
#039380:14
#0393a0:00240000
#040340:14
#040320:00240000
#041380:14
#0413a0:0034
#042380:34
#0423a0:0024
#043340:14
#043320:0034
#044340:34
#044320:0038
#045340:24
