This file was generated by Ched 2.7.0.0.
#TITLE ""
#ARTIST ""
#DESIGNER ""
#DIFFICULTY 0
#PLAYLEVEL
#SONGID ""
#WAVE ""
#WAVEOFFSET 0
#JACKET ""
#REQUEST "ticks_per_beat 480"
#00002: 4
#BPM01: 156
#00008: 01
#TIL00: ""
#VOLUME: ""
#HISPEED 00
#MEASUREHS 00
#00112:0000000000130000
#00118:1300000000000013
#00115:0000001300000000
#0011b:00330000
#00218:0000000000000013
#00215:0013000000130000
#00212:0000001300000000
#00015:0000000000000013
#00315:1300000000130000
#00318:0000001300000000
#00312:00330000
#00412:0000130000000013
#0041b:00130000
#00418:00000013
#00415:0000000000130000
#00518:0013000000130000
#0051b:0000130000000013
#00512:0000000000000013
#00515:1300001300000000
#00715:0000001300000013
#00718:0000001300001300
#0061b:0000001300000000
#00612:0000001300000000
#00615:0013000000000000
#00918:0013130000130000
#00918:0000000000130000
#0091b:0013
#00915:00000013000000000000000013000000
#00912:2400001400000013
#00917:5300000000000013
#01016:00000013
#01015:00001300000000000000000000530000
#01018:00130000
#01012:0000001300000000
#0101b:0000000000130000
#01014:0000000000000053
#01013:00000000000000000000000000000053
#0151b:2300001300000000
#01515:0000130000130000
#01518:0013000013000000
#01512:0000002300001400
#01517:0000000000000014
#0151a:00000024
#01516:63
#01615:1400001400000000
#0161a:0014000024000000
#01617:00140000
#01612:0024000014000000
#01718:13
#0171b:0013
#01716:0012
#01710:41
#01818:0012
#01815:13
#01812:0013
#0191b:13
#01918:0013
#01914:0012
#02012:13
#02015:0013
#0201a:0012
#02118:13
#02112:0013
#0211b:0013
#02218:13
#02215:13
#02212:0013
#02315:0013
#02318:13
#0241b:13
#02412:13
#02516:0013
#02512:13
#02517:27
#02617:0013
#02615:001400000000
#0261b:13
#02614:000000000000001400000000000000000000000000000000
#02612:24
#02712:00000013
#02715:1313
#0271b:00130000
#02718:23
#02916:13
#0291b:13
#02910:41
#03315:0013000013001300
#03318:0000130000130013
#0331b:0000001313000000
#03312:2300000000000013
#0331a:24
#03415:0013000000000013
#03418:0000130000140000
#0341a:0000001400000000
#03419:0014
#03412:0000000000140000
#03413:0014
#03414:0000001400000000
#03515:0000130000000013
#03518:0000001300000000
#03512:1314
#03516:0000000000140000
#0351a:00000014
#0351b:13
#0361a:0000001400140000
#03619:00140000
#03618:13
#03612:0013000000000000
#03616:0000002400240000
#03615:00240000
#03017:13
#03012:13
#02815:13
#02818:13
#0311b:13
#03117:0013
#03116:13
#03212:13
#03216:000000000000000000343434000000000000000000000000
#0371b:0013000000000000
#03718:00130000
#03715:0000001300000000
#03712:0013
#03719:0000000000130000
#03716:00000013
#0371a:0000000000000013
#03713:0000000000000013
#03815:0013000000130000
#03812:0000001300000000
#0381b:0013
#03818:0000130000000013
#0391a:1400001400001400
#03918:00130000
#03917:0000000000130000
#03910:41
#0401a:0024001400000000
#04015:0014
#04017:00000014
#04012:0024000000000000
#04112:14
#04116:00140000
#0411a:24
#04117:0024
#04114:0034003400000000
#0421a:14
#04216:00140000
#04212:24
#04215:0024
#04218:0034003400000000
#04315:0013000000002313
#04318:0000130000130013
#0431b:0000001300000000
#04312:2313
#04418:0000001400000000
#04415:0014
#04417:00000014
#04715:0000001300000013
#04712:1300000000130000
#0471b:1300000000130000
#04718:0000001300000013
#04917:0014000014000014
#04914:0000140000140000
#04912:0000000000000014
#0491f:11
#0491a:2400002400002400
#0501a:0014000000000000
#05017:0000001400000000
#05015:0014000000000013
#0501b:0000000000130000
#05018:00000013
#05014:34340000
#05115:0014000014000024
#05118:0000140000140000
#0511a:0000000000000024
#05112:2400002400002400
#05217:0014000000000000
#05212:0024000000130000
#05215:0000002400001300
#05218:3400340000000013
#05317:0014000000000000
#05312:1400001400000014
#05318:0014
#05316:0000000000140000
#0531a:2400002400000014
#05314:00140014
#05414:0014000000001400
#05418:0014000000140026
#05412:0000000000000024
#05413:34340000
#05419:34340000
#05518:0014000000130015
#0551b:0013
#05515:00000013
#0551a:00240000
#05512:00260000
#05513:0000000000000024
#05615:0000000013000013
#05618:0013000000130013
#05613:00150000
#05619:00240000
#05712:00000013000000000000130013001300
#05718:0000000000131313
#0571b:00000013000000000000000000000000
#05818:0000000000130013
#05815:0023232300001300
#0581b:0023232300000000
#05918:0013000000000000
#05915:0000130014000013
#05912:2400001400000000
#0591a:0000002400140000
#05917:00000014
#0591b:13
#0591f:21
#05910:0041
#06015:0013000000000000
#06018:00130000
#06012:1300002400001300
#06017:0000000000000013
#0601b:0000001300000000
#0601a:24
#06218:0013000000001300
#06215:0000130000130000
#0621b:13
#06212:2400001300000013
#0621a:0000002400000024
#06115:0013000000001300
#06118:0000130000000013
#0611a:2400001400000000
#06117:0014
#06112:1300002400130000
#06318:0013000000001300
#06315:0000130000130013
#0631b:0000001300000000
#06312:0000002400000000
#0631a:0000000000000024
#06412:0000002400130000
#06418:0013001300000000
#06413:00000013
#0641b:00000000000000000000001300000000
#06414:0000000000000013
#06415:00130000
#06518:0000001300000000
#06519:0013
#0651a:0000000000130000
#0651b:00000013
#06515:2300002300000000
#06514:0023
#06513:0000000000230000
#06512:0000000000002323
#06615:00000013
#06618:0000000000130013
#07112:0013000000000016
#07114:0000000000140000
#07113:00000015
#0711b:0013000000000000
#07118:1300000000242526
#07115:13
#07015:0000001300000000
#07018:00130000
#07014:0000000000000013
#0701a:24000013
#07019:0000000000000013
#07013:00000013
#07012:24
#07213:00140000
#07219:0000140000250000
#07215:0000002600000000
#07212:0000000000250000
#07316:00000000000013000014000000001300
#07312:13000000000000000013000000000000
#0731a:0000141400000024
#07319:15
#07310:41
#07417:0013000000130000
#07416:0000001300000000
#07412:0024000000240000
#0741a:0000002400000000
#07615:1400140000130013
#07618:0014000000001300
#0761a:0000001400000000
#07617:0014
#07612:0000001400000000
#07912:24000014
#07915:0000000000140014
#07916:00000013000000000000000000000000
#0791a:0000000000240024
#07917:00000024
#0791b:00000023000000000000000000000000
#08012:0000001300000000
#08014:0033000000000014
#08017:0000001300000000
#08013:0000000000330000
#08116:0015
#08214:0000000000140000
#04812:00000014000000000000000000000000
#0481a:00000014000000000000000000000000
#04810:41
#01115:0013130000130000
#01118:00000013000000000000000013000000
#0111a:2400001400000000
#01112:5313
#01116:0000000000000013
#0111b:0000000000000013
#01318:0013130000130000
#01315:00000013000000000000000013000000
#0131b:6300000013000013
#01312:2500002500000013
#04512:13131313
#04517:0013001300001300
#04519:0000000000000013
#0461b:13131313
#04612:13
#04616:0013001300001300
#04614:0000000000000013
#07512:0000001300000024
#0751b:0000001300000000
#07518:13
#07515:13
#07514:0000000000240000
#07517:00000024
#0751a:0000000000000024
#0081b:00000013
#0081a:00000000000000000000000000530000
#00819:0000000000000053
#00818:00000000000000000000000000000053
#06715:0013000000130000
#0671b:2300001300000013
#06712:2300001300000013
#06718:00130013
#0691b:13
#06918:0000131300002400
#06915:1300000000000024
#06913:0000000000240000
#0681b:0013
#06815:0000130000000013
#06812:0013
#06818:0013001300000000
#07712:1414
#07716:00130013
#07717:2424
#0771a:00240024
#07817:1414
#0781b:00130013
#07815:00240024
#07812:2424
#01218:00001300000000000000000000630000
#01215:00130000
#0121b:0000001300000000
#01212:0000000000130000
#01217:00000023
#01219:0000000000000063
#0121a:00000000000000000000000000000063
#01415:00001300000000001300000000000063
#0141b:00130000
#01412:0000001300002300
#01418:1300000000130000
#01413:00000000000000000000000000630000
#01414:0000000000000063
#08412:52
#00158:63
#00155:0000006300000000
#00152:0000000000230000
#00355:5300000000530000
#00358:0000006300000000
#00452:00230000
#0045b:00230000
#00652:0000002300000000
#00655:0063000000000000
#0055b:0000000000000023
#00558:0000000000530000
#00555:0000001300000000
#00755:0000005300000053
#00758:0000005300000000
#0165a:0014
#01652:0064
#01758:63
#0175b:0023
#01755:13
#01855:53
#01852:0023
#0195b:53
#01958:0023
#02052:63
#02055:0023
#02158:53
#02152:0023
#0215b:0023
#02258:63
#02255:63
#02252:0023
#02455:0013
#02458:0013
#0245b:53
#02452:63
#02355:0063
#02358:53
#02655:002400000000
#02652:54
#02654:000000000000005400000000000000000000000000000000
#02752:00000023
#02755:0053
#0275b:00230000
#02758:63
#02852:0013
#0285b:0013
#02855:63
#02858:53
#02952:0013
#02956:53
#0295b:53
#03656:0000000000640000
#0365a:0000000000640000
#03358:0000000000000063
#0335a:14
#03057:63
#03052:63
#0305b:0013
#0315b:63
#03157:0053
#03156:63
#03152:0013
#03256:0014
#03252:53
#0325b:13
#0355b:63
#0375a:0000000000000013
#03753:0000000000000013
#03855:0000000000130000
#04052:0014000000000000
#04055:0054
#04057:00000064
#0405a:0014000000000000
#04152:6400000000140000
#04157:0000000000140000
#04156:00240000
#0415a:14
#0425a:5400000000140000
#04256:00240000
#04255:0000000000140000
#04252:14
#0445a:0014000000000000
#04452:0014000000000000
#04455:0054
#04457:00000064
#04355:0000000000000053
#04358:0000000000000053
#04755:0000005300000053
#04752:5300000000530000
#0475b:5300000000630000
#04758:0000006300000063
#05057:0000001400000000
#05052:0000001400000000
#05055:0054000000000000
#04952:0000000000000054
#05257:0064000000000000
#0525a:0000001400000000
#05255:0000001400000000
#0515a:0000000000000064
#05452:0000001400000000
#0545a:0000001400000000
#05454:0054000000000000
#05458:0064000000000046
#05352:0000000000000054
#0535a:0000000000000064
#05658:0000000000130053
#05655:0000000000000063
#05653:00350000
#05752:00000023000000000000000000001300
#0575b:00000023000000000000000000000000
#05758:0000000000000013
#0585b:0000001300000000
#05855:0000001300000000
#05952:1400005400000000
#0595a:0000001400640000
#05955:0024
#05957:00000024
#0605b:0000006300000000
#0605a:14
#06052:0000001400000000
#0615a:1400006400000000
#06157:0024
#06152:0000001400000000
#06252:1400000000000053
#0625a:0000001400000000
#0635b:0000005300000000
#06355:0000000000000063
#06458:0000006300000000
#0645b:00000000000000000000002300000000
#07055:0000005300000000
#07058:00630000
#07052:14
#0705a:14
#07255:0000001600000000
#07252:0000000000150000
#07259:0000000000150000
#07152:0023000000000056
#07158:6300001300000056
#0715b:0023000000000000
#07155:5300001300000000
#07352:53000000000000000023000000000000
#0735a:0000005400000000
#07356:00000000000053000024000000000000
#07359:15
#07457:0000000000530000
#07757:14
#07752:2424
#07756:00230023
#0765a:0000006400000000
#07657:0024
#07655:24
#07652:0000001400000000
#07957:0000001400000000
#07955:0000000000000054
#07956:00000063000000000000000000000000
#07952:5400001400000000
#0795a:0000000000000054
#0795b:00000053000000000000000000000000
#08052:0000002300000000
#08054:0000000000000054
#08057:0000002300000000
#0805a:0000000000000044
#08254:0000000000540000
#08156:0025
#04852:00000024000000000000000000000000
#0485a:00000024000000000000000000000000
#04858:0012
#04856:0012
#05552:00360000
#05558:0000000000000045
#0755a:0000000000000014
#07552:0000001300000054
#0755b:0000001300000000
#07558:53
#07555:63
#00952:1400001400000000
#00957:0000000000000053
#0115a:1400001400000000
#01156:0000000000000063
#01352:1500001500000000
#0135b:0000000000000053
#0675b:0000005300000013
#06752:0000001300000063
#0685b:0063
#06852:0063
#0695b:13
#06952:0000001300000000
#06955:53
#06958:0000005300000000
#07857:2424
#0785b:00230023
#07852:14
#01052:0000005300000000
#0125b:0000006300000000
#01452:0000005300000000
#01458:23
#01455:0023
#001380:13
#0013b0:0000332300000000
#001351:0000001300000023
#001321:0000000000530000
#003351:13
#003321:0000332300000000
#003380:0000001300000000
#0033b0:0000000000230000
#003351:0000000000130000
#003321:0000000000000033
#004321:0033330000000000
#004351:0023
#0033b0:0000000000000013
#0043b0:0033330000000000
#004380:0023
#005380:0000000000130000
#0053b0:0000000000000053
#006380:0023000000000000
#006351:0013000000230000
#006321:0000005300000000
#006380:0000000000130023
#006351:0000000000000013
#007351:3300003300000000
#007321:00000033000000000000230000000000
#007380:1300003300000000
#0073b0:00000033000000000000230000000000
#007350:0000000000000013
#008320:00000029
#009370:0000000000000013
#0103b0:0023000000000000
#010320:0000001300000000
#010360:0000000000230000
#011360:0000000000000013
#012320:0023000000000000
#0123b0:0000001300000000
#012370:0000000000230000
#0133b0:0000000000000013
#014380:53
#0143b0:0023000000000000
#014320:0000001300230000
#014350:0053
#016320:0014
#017350:23
#017381:13
#0173b1:0053
#018381:23
#018350:13
#018320:0053
#019350:23
#0193b1:13
#019381:0053
#0203b1:23
#020320:13
#020350:0053
#021320:23
#021381:13
#0213b1:0053
#022381:33
#0223b1:0023
#021320:0013
#022350:33
#022320:0053
#023350:23
#023381:13
#0233b1:0033
#0243b1:33
#024381:0000005323000000
#023350:0013
#024320:33
#024350:0000005323000000
#025370:17
#0253b0:0023
#026320:1424
#026350:005400000000
#026340:000000000000005400000000000000000000000000000000
#027380:1333
#0273b0:00530000
#028380:33
#0283b0:0023
#027351:0013
#027321:00000053
#028351:33
#028321:0023
#029361:13
#029321:0023
#0293b0:13
#029370:0033
#030370:33
#0303b0:0023
#030321:13
#030361:0033
#031361:33
#031321:0023
#0313b0:13
#031370:0033
#0323b0:23
#032321:13
#032361:000000000000000000343434240000000000000000000000
#033381:0000000000000013
#0343b1:0023000000000000
#0353b1:13
#035381:00230000
#036361:0000000000140000
#037321:24
#0363a0:0000000000140000
#037360:24
#039340:14545454240000000000000000000000
#039350:0054005400540054000000000000000000000000000000000000000000000000
#039330:00000000000014545454240000000000
#039340:0000000000000000000000000054005400540054000000000000000000000000
#039320:000000000000000000000000000000000000145454545454
#039330:000000000000000000000000000000000000000000000000000000000000000000000000005400540054005400540054
#040320:545454240000000000000000000000000000000000000000
#040330:005400540054000000000000000000000000000000000000000000000000000000000000000000000000000000000000
#0393a1:000000000000000000000000000000000000000000145454
#039391:000000000000000000000000000000000000000000000000000000000000000000000000000000000000005400540054
#0403a1:545454240000000000000000000000000000000000000000
#040391:005400540054000000000000000000000000000000000000000000000000000000000000000000000000000000000000
#040351:0014
#040321:00000024
#040370:00000014
#0413a0:24
#041321:1400000034240000
#041341:0034003400000000
#041361:00340000
#041370:0000000014240000
#0423a0:1400000034240000
#042380:0034003400000000
#042360:00340000
#042351:0000000014240000
#043351:0000000000001333
#044321:00542400000000000000000000000000
#043380:0000000000000013
#0443a0:00542400000000000000000000000000
#044350:0014
#044320:00000024
#044371:00000014
#0453a1:24
#047321:13
#047351:00230000
#0473b0:13
#047380:00230000
#047350:0000001300000033
#047320:0000000000330000
#048320:00000054000000000000000000000000
#048360:0022
#047381:0000001300000033
#0473b1:0000000000330000
#0483a1:00000054000000000000000000000000
#048381:0022
#049321:0000000000000014
#050341:34340000
#050351:0034000000000000
#050321:0000002400000000
#0513a1:0000000000000014
#052381:34340000
#052371:0034000000000000
#0523a1:0000002400000000
#0533a1:0000000000000014
#054391:34340000
#054381:0034000000000000
#0543a1:0000002400000000
#053320:0000000000000014
#054330:34340000
#054340:0034000000000000
#054320:0000002400000000
#056350:0000000000000013
#057320:00000053000000000000000000000000
#057350:0023
#056381:0000000000000013
#0573b1:00000053000000000000000000000000
#057381:0023
#059321:0000001400240000
#059351:0054
#0593a0:0000000000140024
#059370:00000054
#0603b0:0000001300000000
#060370:00000023
#0613a0:0000001400240000
#061370:0054
#062320:0000000000000013
#063350:0023000000000000
#0633b0:0000001300000000
#063380:0000000000230000
#063350:0000000000000013
#064320:0023000000000000
#064380:0000001300000000
#0643b0:00000000000000000000005300000000
#065380:33230000
#065351:13230000
#065321:0000000000000013
#066321:0026
#0653b0:0000000000000013
#066380:0026
#0673b0:0000001300000000
#067380:0000000000230000
#067320:0000000000000013
#068350:0023000000000000
#0683b0:0013
#068380:00000023
#068321:0013
#068351:00000023
#069351:13
#069321:0000002300000000
#069380:0000001300000000
#0693b0:0000000000230000
#070380:00130000
#0703b0:0000000000230000
#070351:0000001300000000
#070321:0000000000230000
#071381:1300332300000000
#0713b1:0053000000000000
#071350:1300332300000000
#071320:0053000000000000
#071320:0000000000000016
#072320:0023000000000000
#071381:0000000000000016
#0723b1:0023000000000000
#073321:13
#073361:00230000
#073361:0000001300002300
#073321:00000000000000000053000000000000
#0733a0:0000001400002400
#073360:00000000000000000054000000000000
#074370:0000000000130000
#0743b0:0000000000000023
#074351:0000000000000013
#075351:53
#075321:00230000
#075380:13
#0753b0:00230000
#075320:0000000000000014
#076350:54
#076320:0024000000000000
#0763a0:0000001400240000
#076370:0054
#077320:1434
#077360:00330033
#078320:24
#078371:1434
#0783b1:00330033
#079371:24
#079320:1400002400000000
#079360:00000033000000000000000000000000
#0793b1:00000013000000000000000000000000
#079371:0000002400000000
#0793a1:0000000000000014
#080371:0000005300000000
#0803a1:0000000000000024
#079350:0000000000000014
#080340:0033000000000034
#080320:0000003300000000
#080330:0000000000330000
#081360:0055
#082340:0000000000540000
#084320:22
#0089b0:00000013
#009970:23
#010960:00000013
#011920:23
#012970:00000013
#0139b0:23
#014920:00000013
#015960:23
