This file was generated by Ched 2.7.0.0.
#TITLE ""
#ARTIST ""
#DESIGNER ""
#DIFFICULTY 0
#PLAYLEVEL
#SONGID ""
#WAVE ""
#WAVEOFFSET 0
#JACKET ""
#REQUEST "ticks_per_beat 480"
#00002: 4
#BPM01: 192
#00008: 01
#TIL00: "71'1919:10000, 72'0:1"
#VOLUME: ""
#HISPEED 00
#MEASUREHS 00
#00414:00120000
#00416:0012
#00418:00000012
#00612:1414
#00615:00140000
#00616:00000014
#0061a:00130000
#0061b:00000013
#00715:00140000
#00712:1414
#00714:00000014
#0071a:00130000
#00719:00000013
#00812:1414
#00813:00140000
#00818:00130000
#0081a:00000024
#0091a:0014
#00912:24
#00915:00230000
#00914:00000023
#00919:00240000
#00918:00000024
#0101a:1414
#01013:00230000
#01012:00000023
#01017:00240000
#01016:00000024
#01214:0000000000140000
#01218:0014
#0121a:24
#01212:00240000
#0111a:1414
#01113:00230000
#01114:00000023
#01117:00240000
#01118:00000024
#01318:0000001300000000
#0131b:0000000000000013
#01315:0000000000000013
#01314:00240000
#00318:0000000000000014
#00312:14141400
#00314:00000014
#0031a:24242400
#00519:00000013
#00518:00130000
#00514:00000014
#00512:0014
#00513:00140000
#0051a:24
#00510:41
#02912:24141414
#02918:24141414
#03014:14141414
#0301a:14141414
#03118:14141414
#03112:14141414
#03214:14141414
#0321a:14141414
#03318:00141414
#03312:24
#03514:00141414
#03613:14141414
#03610:41
#01418:0033330000130000
#01415:00000013
#0141b:0000000000000013
#01419:33
#01412:0033330000000000
#01413:33
#01515:1300000000000013
#01512:00130000
#01518:0013000033000000
#0151b:0000001300000000
#01510:41
#01618:13130000
#01615:0013001300000000
#01715:0000001300000000
#01718:0000240000000013
#01712:0000000000000013
#01815:0033330000130000
#01818:00000013
#01812:0000000000000013
#0181b:0033330000000000
#0181a:33
#01814:33
#01912:00130000
#01918:0000001300130013
#01915:00001313
#0191b:0013000000000000
#02815:0000000000130000
#02818:14001313
#02812:00150000
#03915:00001313
#03918:0000001300130000
#04115:00131313
#04118:0000001300130000
#04112:24
#0411a:24
#04218:00131313
#04215:0000001300130000
#04212:24
#0421a:24
#04513:1414
#04514:00000000000000000000000000000012
#04715:00131300
#04718:0000001300130000
#04719:25
#0471f:21
#04712:25000023
#0471b:0000000000000023
#04710:0041
#04815:0000001300130013
#04818:0013
#0481b:00000013
#04918:0000001300130000
#04915:0013
#04912:00000023
#0491b:0000000000000023
#05015:0000001300130000
#05018:0013
#0501b:00000013
#05012:0000000000000013
#05118:0013000000000000
#05115:00130000
#05119:0000001300000000
#05114:0023
#05113:00000023
#0511a:0000000000230000
#0511b:0000000000000023
#05212:0013000000000000
#0521a:00130000
#05213:0000001300000000
#05214:0000000000130000
#05219:0013
#05218:00000013
#05215:0000000000000013
#0531b:0013000000000000
#05312:0000000000230000
#05319:00330000
#05314:00000033
#0541b:0000000013000053
#0541a:00000000000000000053000000530000
#05419:0000000000535300
#05418:00000000000000000000005300000000
#05519:00140000
#05515:2313
#05518:0000000000130000
#05513:00000014
#05618:1300000000130000
#05619:00140000
#05615:0013000013000000
#05613:00000014
#05815:00001313
#05818:2400000000130000
#05814:0024000000000000
#0581a:00240000
#06312:00130000
#0631b:00130000
#06315:23000013
#06318:2300000000000013
#06313:0000003300000000
#0631a:0000003300000000
#06519:15150000
#06518:00001414
#06514:0000000000140014
#06512:25250000
#0671a:00140000
#06712:00240000
#03815:13000013
#03812:0000331333000000
#04314:00141414
#04318:0000001400140000
#04312:24
#0431a:24
#05918:16
#05916:00160000
#05914:0016
#05910:41
#06112:16
#06114:00160000
#06116:0016
#02119:00150000
#02118:00000015
#02114:0014
#02217:00150000
#02213:14
#02212:0014
#02216:00000015
#02317:00150000
#02318:00000015
#02312:14
#02313:0014
#02414:14
#02419:0000150000240000
#02415:0014
#02410:0000000000000041
#02512:00150000
#02513:00000015
#02518:0014
#02614:00150000
#02619:14
#0261a:0014
#02615:00000015
#02714:00150000
#02713:00000015
#0271a:14
#02719:0014
#04418:00141414
#04414:0000001400140000
#04412:24
#0441a:24
#02013:0000000024140000
#02019:0000000024140000
#04018:00000013
#04012:0013000000000000
#0371b:13
#03718:00331333
#0371f:11
#03419:24242424
#04612:26
#05718:2400000000240000
#05714:0024000024000000
#0571a:00240000
#05712:00000024
#06415:23
#06418:00240026
#06413:0025
#06018:23
#06019:00230000
#0601a:0023
#0601b:00000023
#06215:23
#06214:00230000
#06213:0023
#06212:00000023
#00118:00000023
#0085a:00000014
#00952:14
#0125a:14
#01252:00140000
#0135a:14
#0135b:0000000000000063
#01355:0000000000000063
#01655:0000001300000000
#01758:0000000000000053
#01752:0000000000000053
#0155b:0000006300000000
#03955:00000053
#04553:6464
#04554:00000000000000000000000000000022
#04652:16
#04759:15
#04752:15
#0475b:0000000000000053
#05255:0000000000000013
#05458:00130000
#05455:00130000
#0535b:0063000000000000
#05352:0000000000630000
#05559:00140000
#05553:00000014
#05659:00140000
#05653:00000014
#0575a:00140000
#05752:00000014
#0585a:00140000
#06355:53
#06358:53
#0635b:00230000
#06352:00230000
#06455:13
#06458:00140016
#06453:0015
#06752:00540000
#0675a:00540000
#03855:53000063
#03852:0000002300000000
#04855:0000000000000053
#02159:00450000
#02158:00000045
#02257:00450000
#02256:00000045
#01958:0000000000000013
#02357:00450000
#02358:00000045
#02459:0000450000240000
#02458:0000000000000016
#02552:00350000
#02553:00000035
#02654:00350000
#02655:00000035
#02754:00350000
#02753:00000035
#02053:0000000000240000
#02052:0000000000000016
#02059:0000000000240000
#02058:0000000000000016
#0375b:53
#03758:0023
#04052:0023000000000000
#04055:0013
#02852:00350000
#0515b:0000000000000013
#0025a:00000013
#00254:00000013
#0055a:14
#05052:0000000000000013
#06956:00000012
#06958:00000012
#0495b:0000000000000053
#001320:13000033
#001330:0033000000330033
#001340:00333300
#001350:0000003300000000
#002340:33330023
#002350:0033000000000000
#002330:0000003300330000
#002320:0033
#001381:00000013
#001391:0000000000000033
#0023a1:33330023
#0023b1:0033000000000000
#002391:0000003300330000
#002381:0033
#012381:00000014
#0133a1:24
#0133b1:0000000000000013
#014391:33
#014381:0033332300000000
#013350:0000000000000013
#014330:33
#014320:0033332300000000
#0153b0:0000001300000000
#015380:00003323
#017380:0000000000000013
#0183a0:33
#0183b0:0033332300000000
#017321:0000000000000013
#018341:33
#018351:0033332300000000
#020331:0000000014340000
#020321:0000000000000026
#020390:0000000014340000
#020380:0000000000000026
#024390:0000000000140000
#024380:0000000000000026
#033320:14
#034340:00000024
#0353a0:14
#036380:00000024
#0373b0:13
#037380:00333333
#0383b0:23
#038351:13000033
#038321:0000335333000000
#039321:00230000
#039351:00000013
#040321:0053000000000000
#040351:0023
#045331:1434
#045341:000000000000000000000000000000000000000000005200000000000000000000000000000000000000000000520000
#046321:26
#0473b1:0000000000000013
#048381:00230000
#048351:0000000000000013
#049321:00230000
#0493b1:0000000000000013
#050381:00230000
#0533b1:0013000000000000
#053391:00330000
#053381:0000003300000000
#054381:00230000
#053320:0000000000130000
#053340:00000033
#053350:0000000000000033
#054350:00230000
#059320:00000016
#060320:00000026
#061380:00000016
#062380:00000026
#063380:1323
#0633b0:00330000
#0633a0:0000003300000000
#063351:1323
#063321:00330000
#063331:0000003300000000
#067321:00140000
#069361:00000022
#0673a0:00140000
#069380:00000022
#0549b0:000000000000000000000000000000000000000000000000000000000000000000000000000000000000000000000000000000000000000000000000000000000000000000000000000000000000000000000000000000000000000000000000000000000000000000000000000000000000000000000000000000000000000000000000000000000000000000000000000000000000000000000000000000000000000000000000000000000000000000000000000000000000000000000000000000000000000000000000000000000000000000000000000000000000000000000000000000000000000000000000000000000000000000000000000000000000000000000000000000000000000000000000000000000000000000000000000000000000000000000000000000000000000000000000000000000000000000000000000000000000000000000000000000000000000000000000000000000000000000000000000000000000000000000000000000000000000000000000000000000000000000000000000000000000000000000000000000000000000000000000000000000000000000000000000000000000000000000000000000000000000000000000000000000000000000000000000000000000000000000000000000000000000000000000000000000000000000000000000000000000000000000000000000000000000000000000000000000000000000000000000000000000000000000000000000000000000000000000000000000000000000000000000000000000000000000000000000000000000000000000000000000000000000000000000000000000000000000000000000000000000000000000000000000000000000000000000000000000000000000000000000000000000000000000000000000000000000000000000000000000000000000000000000000000000000000000000000000000000000000000000000000000000000000000000000000000000000000000000000000000000000000000000000000000000000000000000000000000000000000000000000000000000000000000000000000000000000000000000000000000000000000000000000000000000000000000000000000000000000000000000000000000000000000000000000000000000000000000000000000000000000000000000000000000000000000000000000000000000000000000000000000000000000000000000000000000000000000000000000000000000000000000000000000000000000000000000000000000000000000000130000000000000000000000000000000000000000000000000000000000000000000000000000000000000000000000000000000000000000000000000000000000000000000000000000000000000000000000000000000000000000000000000000000000000000000000000000000000000000000000000000000000000000000000000000000000000000000000000000000000000000000000000000000000000000000000000000000000000000000000000000000000000000000000000000000000000000000000000000000000000000000000000000000000000000000000000000000000000000000000000000000000000000000000000000000000000000000000000000000000000000000000000000000000000000000000000000000000000000000000000000000000000000000000000000000000000000000000000000000000000000000000000000000000000000000000000000000000000000000000000000000000000000000000000000000000000000000000000000000000000000000000000000000000000000000000000000000000000000000000000000000000000000000000000000000000000000000000000000000000000000000000000000000000000000000000000000000000000000000000000000000000000000000000000000000000000000000000000000000000000000000000000000000000000000000000000000000000000000000000000000000000000000000000000000000000000000000000000000000000000000000000000000000000000000000000000000000000000000000000000000000000000000000000000000000000000000000000000000000000000000000000000000000000000000000000000000000000000000000000000000000000000000000000000000000000000000000000000000000000000000000000000000000000000000000000000000000000000053535353230000000000000000000000000000000000000000000000000000000000000000000000000000000000000000000000000000000000000000000000000000000000000000000000000000000000000000000000000000000000000000000000000000000000000000000000000000000000000000000000000000000000000000000000000000000000000000000000000000000000000000000000000000000000000000000000000000000000000000000000000000000000000000000000000000000000000000000000000000000000000000000000000000000000000000000000000000000000000000000000
#054980:00000000000000000000005300000000
#0729d0:112100000000000000000000000000000000000000000000000000000000000000000000000000000000000000000000000000000000000000000000000000000000000000000000000000000000000000000000000000000000000000000000000000000000000000000000000000000000000000000000000000000000000000000000000000000000000000000000000000000000000000000000000000000000000000000000000000000000000000000000000000000000000000000000000000000000000000000000000000000000000000000000000000000000000000000000000000000000000000000000000000000000000000000000000000000000000000000000000000000000000000000000000000000000000000000000000000000000000000000000000000000000000000000000000000000000000000000000000000000000000000000000000000000000000000000000000000000000000000000000000000000000000000000000000000000000000000000000000000000000000000000000000000000000000000000000000000000000000000000000000000000000000000000000000000000000000000000000000000000000000000000000000000000000000000000000000000000000000000000000000000000000000000000000000000000000000000000000000000000000000000000000000000000000000000000000000000000000000000000000000000000000000000000000000000000000000000000000000000000000000000000000000000000000000000000000000000000000000000000000000000000000000000000000000000000000000000000000000000000000000000000000000000000000000000000000000000000000000000000000000000000000000000000000000000000000000000000000000000000000000000000000000000000000000000000000000000000000000000000000000000000000000000000000000000000000000000000000000000000000000000000000000000000000000000000000000000000000000000000000000000000000000000000000000000000000000000000000000000000000000000000000000000000000000000000000000000000000000000000000000000000000000000000000000000000000000000000000000000000000000000000000000000000000000000000000000000000000000000000000000000000000000000000000000000000000000000000000000000000000000000000000000000000000000000000000000000000000000000000000000000000000000000000000000000000000000000000000000000000000000000000000000000000000000000000000000000000000000000000000000000000000000000000000000000000000000000000000000000000000000000000000000000000000000000000000000000000000000000000000000000000000000000000000000000000000000000000000000000000000000000000000000000000000000000000000000000000000000000000000000000000000000000000000000000000000000000000000000000000000000000000000000000000000000000000000000000000000000000000000000000000000000000000000000000000000000000000000000000000000000000000000000000000000000000000000000000000000000000000000000000000000000000000000000000000000000000000000000000000000000000000000000000000000000000000000000000000000000000000000000000000000000000000000000000000000000000000000000000000000000000000000000000000000000000000000000000000000000000000000000000000000000000000000000000000000000000000000000000000000000000000000000000000000000000000000000000000000000000000000000000000000000000000000000000000000000000000000000000000000000000000000000000000000000000000000000000000000000000000000000000000000000000000000000000000000000000000000000000000000000000000000000000000000000000000000000000000000000000000000000000000000000000000000000000000000000000000000000000000000000000000000000000000000000000000000000000000000000000000000000000000000000000000000000000000000000000000000000000000000000000000000000000000000000000000000000000000000000000000000000000000000000000000000000000000000000000000000000000000000000000000000000000000000000000000000000000000000000000000000000000000000000000000000000000000000000000000000000000000000000000000000000000000000000000000000000000000000000000000000000000000000000000000000000000000000000000000000000000000000000000000000000000000000000000000000000000000000000000000000000000000000000000000000000000000000000000000000000000000000000000000000000000000000000000000000000000000000000000000000
