This file was generated by Ched 2.7.0.0.
#TITLE ""
#ARTIST ""
#DESIGNER ""
#DIFFICULTY 0
#PLAYLEVEL
#SONGID ""
#WAVE ""
#WAVEOFFSET 0
#JACKET ""
#REQUEST "ticks_per_beat 480"
#00002: 4
#BPM01: 186
#00008: 01
#TIL00: ""
#VOLUME: ""
#HISPEED 00
#MEASUREHS 00
#00118:16
#00212:16
#00318:16
#00412:16
#00518:1616
#00510:41
#00612:1616
#00718:16
#00712:0016
#00912:14
#01018:14
#01114:14
#0121a:14
#01312:14
#01418:14
#01410:41
#01514:14
#0161a:14
#01712:14
#01812:14
#01918:14
#02018:14
#02114:14
#02214:14
#0231a:14
#02310:41
#0241a:14
#02512:14
#02518:0014
#02612:14
#0271a:14
#02714:0014
#0281a:14
#02912:14
#02918:0014
#03012:14
#0311a:14
#03114:0014
#0321a:14
#03210:41
#04113:14
#04219:14
#0421f:0000000000000021
#04318:0016
#04312:26
#04412:16
#04418:0016
#04410:41
#05112:2616
#05218:1616
#05312:16
#05318:0016
#04512:16
#04518:0016
#04712:0016
#04718:26
#04818:16
#04812:0016
#04918:16
#04912:0016
#05518:2616
#05510:41
#05612:1616
#05718:16
#05712:0016
#05912:16
#05918:0016
#06118:16
#06112:0016
#06312:16
#06318:0016
#06518:16
#06512:0026
#06718:16
#06812:16
#06918:16
#06912:0016
#0331f:11
#06612:26
#06218:2626
#008380:1626
#033320:14
#034320:24
#035380:14
#036380:24
#037340:14
#038340:24
#0393a0:14
#0403a0:24
#046320:1626
#050380:1626
#054320:1626
#058380:1626
#060320:1626
#064320:1626
#070380:1626
