This file was generated by Ched 2.7.0.0.
#TITLE ""
#ARTIST ""
#DESIGNER ""
#DIFFICULTY 0
#PLAYLEVEL
#SONGID ""
#WAVE ""
#WAVEOFFSET 0
#JACKET ""
#REQUEST "ticks_per_beat 480"
#00002: 4
#BPM01: 186
#00008: 01
#TIL00: ""
#VOLUME: ""
#HISPEED 00
#MEASUREHS 00
#00012:0013
#00015:0000000000130000
#00018:00000013
#0001b:0000000000000013
#00118:0013000000130000
#00115:0000001300001300
#00112:0000000000000013
#00215:0013000000000000
#00218:0000001300000013
#00212:0000000000130000
#0021b:0000000000130000
#00312:0013000000000013
#00315:00130013
#00318:0000001300130000
#0031b:0013
#00418:0000000000130000
#00415:00000013
#00412:0000000000000014
#0041a:0022002200000000
#00416:00222200
#00515:0014000000130000
#00518:0000001400001300
#0051a:0000000000000014
#00510:41
#00617:0014000000000000
#00614:0000001400000000
#00612:0000000000130000
#0061b:0000000000130000
#00615:0000000000000013
#0071b:0013000000000013
#00718:00130013
#00715:0000001300130000
#00712:0013
#02318:0000000000000013
#02310:41
#0241b:00130000
#02419:0013
#02417:00000013
#02416:00130000
#02414:0013
#02412:00000013
#03315:13000023
#03318:0000001313000000
#0331f:11
#0331b:00000023
#01718:13
#0171b:0000130000000013
#01715:1313
#01712:00230023
#01818:1300000000130013
#01815:0013000000000000
#0181b:0000001300000000
#01812:00230023
#0251b:13000013
#02518:0013
#02515:0000000000130013
#02516:13
#02517:00130000
#02512:00240024
#03712:13
#03718:1313
#0371b:00130023
#03715:00231300
#03716:0000000000000014
#03812:13000013
#03818:0014000013000000
#0381a:0000001400000000
#03815:0000230000130013
#0381b:00000023
#04112:1300000000000013
#04115:0000001313001300
#04118:0000130000000013
#0411b:0000001313000000
#04215:0013131300001300
#04218:00000013001300000000130000001300
#0421b:0013
#04212:0000000000000024
#0421f:0000000000000021
#05015:0000131300130000
#05018:00001300001300130000000013000000
#05012:0013
#0501a:0000000000000024
#05016:0000000000000023
#05918:0000001300002300
#05915:0000000013000013
#05912:0000000000130000
#05916:00140000000000000000000000000000
#0591b:00230000
#06012:1300001300002313
#06015:0013000000130000
#0601b:0000001300000000
#06018:0000230000130000
#06118:1300000013000013
#06115:0013001300130000
#06112:00130023
#0611b:00230013
#06412:0000000000000013
#06418:0000230000130000
#0641b:1300001300000000
#06415:0013000000002300
#00815:0013000000230000
#00818:0000001313002300
#00812:0023
#0081b:0000000000000023
#01012:0013
#01018:0000000000000013
#01216:0014000000000000
#0121b:0000000000000013
#01218:00000054000000000000000000000000
#0121a:00540000
#01315:0000001300000000
#01416:0014005400000000
#0141b:0000001300000000
#01414:00000054005400000000140000000000
#01418:0000000000000014
#01410:41
#01412:00540000
#01512:0000000000000013
#0161a:0014
#0161b:00000023
#01612:00000023
#01915:13
#01912:0000130000000013
#01918:0013
#0191b:00230023
#02015:0013001300000000
#02012:00000013
#0201b:00230023
#02118:13
#0211b:0000130000000013
#02115:1313
#02112:00230023
#02218:1300001300000000
#02215:0013000000000000
#0221b:0000000000130000
#02216:0000000000000014
#02212:00230023
#02618:1300001300000000
#0261b:0013000000130000
#02615:0000000000000013
#02612:00240024
#02718:13
#02717:00130000
#02716:0013
#0271b:00001313
#02715:0000000000000013
#02712:00240024
#02818:13
#0281b:0013000000000000
#02817:0000001300000000
#02812:00240024
#02915:1313
#02918:0013001300000000
#02912:0000130000130013
#0291a:00240024
#03018:13
#03015:0013000000130000
#03012:0000001300000000
#0301a:00240024
#03118:1300000000130000
#03115:0013000013000000
#03112:0000001300000000
#0311a:00240024
#03212:1300000000130000
#03215:0013001313000000
#03218:00000000000000130000000000001300
#0321b:13
#0321a:00240024
#03210:41
#03418:13000023
#03415:0000001313000000
#03412:13000023
#03512:13000023
#0351b:0000001313000000
#03518:13000023
#0361b:13000023
#03612:0000001313000000
#03615:13000023
#0391b:1300001300000000
#03915:0013000013000013
#03918:0000230000130000
#03912:00000023
#0401b:1300001300000000
#04015:0013000013000013
#04018:00000000230000000000000000130013
#04012:00000023
#04315:0000000000130013
#04318:00000013
#04316:0024000000000000
#0431a:0000002400000024
#0441b:0000000000130000
#04415:0000000000000013
#04412:0000002400130000
#04418:0000000000000013
#04416:0024000000000000
#04410:41
#0451b:0013000013000013
#04518:00130013
#04515:0000001300130000
#04512:0000000013000013
#04615:0013001300001300
#04618:0000130000130013
#04612:0000000013000024
#0461b:0013
#04718:00000013
#04715:0000000000130013
#04716:0024000000000000
#0471a:0000002400000024
#04812:0000002400130000
#04818:0000000000000013
#0481b:0000000000130000
#04815:0000000000000013
#04816:0024000000000000
#04912:0013000013000013
#04915:00130013
#04918:0000001300130000
#0491b:0000000013000013
#05118:0000000000130000
#05115:00000013
#05112:0024000000000024
#0511a:0000002400000000
#05117:0023000000000023
#05116:0000002300000000
#05212:0000002400130000
#0521b:0000000000130013
#05216:0023000000000013
#0521a:0024000000000000
#05217:0000002300000000
#05316:0014001400000000
#05312:0000130013000013
#05315:0000000000130000
#0531b:0000230000000013
#05318:00000023
#0541b:0013
#05418:0022002200130000
#05415:00000013
#05412:0000000000000024
#05417:0000000000000023
#05416:00222200
#05515:0000000000130000
#05518:00000013
#0551a:0024000000000024
#05512:0000002400000000
#05516:0023000000000023
#05517:0000002300000000
#05510:41
#0561b:0000000000130000
#05612:0024000000130013
#05617:0023000000000013
#0561a:0000002400000000
#05616:0000002300000000
#05716:0014000000000000
#05718:0013
#05715:0000000000130000
#0571b:00000013000013000000000000001300
#05712:00230023
#05812:0000130000000024
#0581b:0000000000230000
#05816:0000000000230000
#05817:0000000000000023
#06212:1300002300230000
#0621b:23
#06218:0023000000000000
#06215:00230000
#06217:0000000000230000
#0621a:0000000000000024
#06216:0000000000000023
#06315:0000001300002300
#06318:0000000013000013
#0631b:0000000000130000
#06316:00140000000000000000000000000000
#06312:00230000
#06515:1300001300230000
#06518:0013000000002300
#06512:00132300
#0651b:0000230013000023
#06612:0013
#06618:0000000000130000
#06615:00000013
#0661b:0000000000000013
#06613:0024242400000000
#06619:0024242400000000
#06718:0013000000001300
#06715:0000001300000000
#06712:0000000000130013
#06815:0013000000000013
#06818:0000001300000000
#0681b:0000000000130000
#0691b:0013000000000013
#06918:00130013
#06915:0000001300130000
#06912:0013
#00912:23
#07013:0023002300000000
#07015:00232300
#0005b:0000000000000013
#00158:0013000000000000
#00155:0000001300000000
#00152:0000000000000013
#00255:0013000000000000
#00258:0000001300000053
#00452:0000000000000014
#00555:0014000000000000
#00558:0000001400000000
#0055a:0000000000000014
#00657:0014000000000000
#00654:0000001400000000
#00655:0000000000000053
#02358:0000000000000013
#02355:0000000000000013
#00352:0000000000000053
#0075b:0000000000000053
#00952:53
#01058:0000000000000053
#0125b:0000000000000053
#01252:0000001300000000
#01355:0000005300000000
#0145b:0000005300000000
#01454:0000000000340000
#01458:0000000000000044
#01552:0000000000000053
#01758:53
#0175b:00530000
#01955:63
#01952:0000630000000013
#02158:53
#0215b:00530000
#02256:0000000000000014
#02857:0000005300000000
#03052:0000000000000013
#03055:0000000000530000
#03355:53
#03458:63
#03552:63
#0365b:53
#03755:0053
#04152:0000000000000013
#04158:0000000000000013
#04252:0000000000000014
#04356:0014000000000000
#0435a:0000001400000014
#04456:0014000000000000
#04452:0000001400000000
#04455:0000000000000063
#0455b:0000000000000063
#04652:0000000000000014
#04756:0014000000000000
#0475a:0000001400000014
#04856:0014000000000000
#04852:0000001400000000
#04858:0000000000000053
#04952:0000000000000053
#0505a:0000000000000014
#05152:0014000000000014
#0515a:0000001400000000
#05256:0000000000000053
#0525a:0014000000000000
#05252:0000001400000000
#0535b:0000000000000013
#05657:0000000000000063
#05652:0014000000000000
#0565a:0000001400000000
#0575b:0000000000000053
#05956:00240000000000000000000000000000
#05952:00340000
#05852:0000000000000054
#0605b:0000001300000000
#06058:0000000000530000
#0645b:0000001300000000
#06455:0063000000000000
#06452:0000001300000000
#0665b:0000000000000013
#06758:0013000000000000
#06755:0000001300000000
#06752:0000000000000013
#06855:0013000000000053
#06858:0000001300000000
#0695b:0000000000000053
#05452:0000000000000014
#0555a:0014000000000014
#05552:0000001400000000
#06356:00240000000000000000000000000000
#0635a:00440000
#0625a:0000000000000064
#07058:0013
#002380:0000000000000013
#0033b0:0023000000000000
#003320:0000000000000013
#004350:0023000000000000
#006350:0000000000000013
#007320:0023000000000000
#0073b0:0000000000000013
#008380:0023000000000000
#009320:13
#010360:00240000
#0103b0:00001323
#010351:0000000000001323
#010380:0000000000000013
#0113b0:0000002300000000
#011361:0000001400240000
#0113b0:0000000000132300
#011351:0000000000001323
#011380:0000000000000013
#012380:23
#012321:1300002300000000
#012380:0000001300230000
#012351:0000000000130023
#0123b0:0000000000000013
#013380:0000002300000000
#013351:0000001300000000
#013321:0000000000000023
#0133b0:0000000000000013
#0143b0:0023000000000000
#0143b0:0000001300000000
#014380:0000000000230000
#015320:0013230000000000
#015381:0000132300000000
#015350:0000001323000000
#0153b1:0000000013230000
#015350:0000000000132300
#015381:0000000000001323
#015320:0000000000000013
#016360:0024
#017380:1323
#0173b0:00330000
#019350:1323
#019320:00330000
#021380:1323
#0213b0:00330000
#023320:0013000000000000
#023350:0000002300000000
#023381:0000001300000000
#0233b1:0000000000230000
#023320:0000000000130000
#023350:0000000000000023
#028370:0000001300000000
#0283b0:00000023
#030350:0000000000130000
#030320:0000000000000023
#033350:13
#033320:0000003323000000
#034380:13
#0343b0:0000003323000000
#035320:13
#035350:0000003323000000
#0363b0:13
#036380:0000003323000000
#037350:0013
#037320:00000023
#044350:0000000000000013
#045320:0023000000000000
#0453b0:0000000000000013
#046380:0023000000000000
#048380:0000000000000013
#0493b0:0023000000000000
#049320:0000000000000013
#050350:0023000000000000
#052360:0000000000000013
#053320:0023000000000000
#056370:0000000000000013
#0573b0:0023000000000000
#0573b0:0000000000000013
#058370:00230000
#058320:0000000000000014
#059360:00540000000000000000000000000000
#059320:00240000
#060380:0000000000130000
#0603b0:0000000000000023
#0623a0:0000000000000014
#063360:00540000000000000000000000000000
#0633a0:00240000
#064350:0013000000000000
#064320:0000002300000000
#068350:0000000000000013
#069320:0023000000000000
#0693b0:0000000000000013
#070380:0023
#012960:0014000000000000
#0129a0:00240000
#014960:0014002400000000
#014920:00540000
