This file was generated by Ched 2.7.0.0.
#TITLE ""
#ARTIST ""
#DESIGNER ""
#DIFFICULTY 0
#PLAYLEVEL
#SONGID ""
#WAVE ""
#WAVEOFFSET 0
#JACKET ""
#REQUEST "ticks_per_beat 480"
#00002: 4
#BPM01: 186
#00008: 01
#TIL00: ""
#VOLUME: ""
#HISPEED 00
#MEASUREHS 00
#00012:0013
#00018:0000000000130000
#00015:00000013
#0001b:0000000000000013
#00115:0013000000130000
#00118:0000001300001300
#00112:0000000000000013
#00218:0013000000000000
#00215:0000001300000013
#0021b:0000000000130000
#0031b:0000001300000013
#00312:0013
#00318:0013000000130000
#00315:00130013
#00412:0013
#00418:0000000000130000
#00415:00000013
#0041b:0000000000000013
#00515:0013000000130000
#00518:0000001300001300
#00512:0000000000000013
#00510:41
#0241b:00130000
#02418:0013
#02415:00000013
#01718:1300000000000013
#0171b:00130000
#01712:00000013
#01815:1300000000130013
#0181b:0013000000000000
#01818:0000001300001300
#01812:00130000
#03712:13
#0371b:13
#03715:0013
#03718:0000130000000013
#03812:1300000000130000
#03815:0000130000000013
#0381b:0013000000000000
#03818:0000001300001300
#0411a:00000014
#04112:2300000000000014
#04118:00130000
#0411b:23
#04115:0000002323000000
#04212:0013
#04218:0023002300130000
#04215:00230013
#0421b:0000000000000023
#0421f:0000000000000021
#05018:0000000000130000
#05015:00000013
#05012:0013
#0501a:0000000000000024
#05915:0000001300000000
#05918:0013
#05912:0000000000130013
#0591b:00000013
#06012:0000001300000000
#06018:0013000000130000
#06015:13
#0601b:00130000
#06115:1313
#06118:0013001300000000
#0611b:0000000000130013
#06112:00130013
#0641b:0000000000000013
#06418:1300000000130000
#06415:0013000000001300
#01218:0013000000000013
#01219:00000053000000000000000000000000
#0121a:00530000
#0131b:0000001300000000
#0191b:13
#01918:0000130000000013
#01915:00000013
#02012:0013000000001300
#02015:0000001300000000
#02018:00130000
#0201b:00000013
#02515:0013
#02518:0000000000130013
#02512:13000023
#0251b:00230000
#02615:1300230000130013
#0261b:0013000000000000
#02618:0000001300002300
#02718:1300000000000013
#0271b:0013
#02712:00230023
#02815:13
#02818:0013001300000000
#02812:00230000
#02915:1313
#02918:0013000000000013
#0291b:0000001300130000
#02912:00230023
#03015:1300230000130000
#0301b:0013000000000000
#03018:0000001300000000
#03112:0000001300000000
#03118:0013
#03115:0000000000130000
#0311b:00230023
#03218:0013001300002300
#03212:1300000000130000
#03215:0000230000000013
#03210:41
#03219:00000000000000530000000000000000
#0321a:0053
#04315:0023000000130000
#04318:0000002300001300
#04312:0000000000000023
#0441b:0000000000130000
#04412:0000000000000013
#04418:0023000000000013
#04415:0000002300000000
#04410:41
#04512:0013000000000013
#04518:00130013
#04515:0000001300130000
#0451b:0013
#05115:0000000000130000
#05118:0000002400001300
#05114:0024000000000000
#05112:0000000000000024
#0521b:0000000000130000
#05218:0024000000000013
#05214:0000002400000000
#05312:0013000000000013
#05315:0000130000130000
#0531b:0013
#05318:0000001300001300
#06512:1323
#06518:0013000000230000
#0651b:0000001300000023
#06515:00130023
#0661b:0013
#06615:0000000000130000
#06618:00240013
#06612:0000000000000013
#06614:0024002400000000
#06718:0013000000130000
#06715:0000001300001300
#0671b:0000000000000013
#06812:0000000000130000
#06815:0013000000000000
#06818:0000001300000013
#06912:0013000000000013
#06918:00130013
#06915:0000001300130000
#0691b:0013
#00618:0013000000000000
#00615:0000001300000013
#0061b:0000000000130000
#0071b:0000001300000013
#00712:0013
#00718:0013000000130000
#00715:00130013
#00915:0000000000130000
#00912:23
#0101b:0013
#01018:0000000000003313
#01518:0013000000130013
#01515:00130013
#0151b:0000001300000000
#01512:0013
#02115:1300000000000013
#02112:00130000
#0211b:00000013
#02218:1300000000130013
#02212:0013000000000000
#02215:0000001300001300
#0221b:00130000
#0331b:13
#03315:00130000
#03318:0013
#03312:0000000000000013
#0331f:11
#03418:1300000000130000
#03415:0013000000001300
#0341b:0000130000000013
#03412:0000001300000000
#03515:0013000000001300
#03518:0000130000130000
#03512:0000001300000000
#0351b:0000000000000013
#03612:0013000000000000
#03618:0000130000000013
#03615:0000001300001300
#0361b:0013
#03915:0000130000000013
#03918:0000001300001300
#0391b:0013000000000000
#03912:0000000000130000
#0401b:0013000000000000
#04018:00130013
#04015:0000001300000013
#04012:0013
#0461b:0013
#04615:0000000000130000
#04618:00000013
#04612:0000000000000023
#04718:0023000000130000
#04715:0000002300001300
#0471b:0000000000000023
#04812:0000000000130000
#0481b:0000000000000013
#04815:0023000000000013
#04818:0000002300000000
#0491b:0013000000000013
#04915:00130013
#04918:0000001300130000
#04912:0013
#05415:00130000000000000000130000000000
#05418:00000013
#0541b:0013
#05412:0000000000000024
#05518:0024000000130000
#05515:00000013
#05514:0000002400000000
#0551a:0000000000000024
#05510:41
#05612:0000000000130000
#05615:0000000000000013
#05614:0024000000000000
#05618:0000002400000000
#0571b:0013000000000013
#05718:0000130000130000
#05712:0013
#05715:0000001300001300
#05818:00130000000000000000000000002400
#05815:0000000000230000
#06318:0000001300000000
#06315:0013
#0631b:0000000000130013
#06312:00000013
#00812:0023
#00818:0000000000230000
#00815:00000023
#0081b:0000000000000023
#06212:23
#06218:0023000000230000
#06215:00230000
#0621b:0000002300000000
#06214:0000000000000024
#01612:00000023
#01414:00000034003400000000000000000000
#01410:41
#02310:41
#0005b:0000000000000013
#00155:0013000000000000
#00158:0000001300000000
#00152:0000000000000013
#00258:0013000000000000
#00255:0000001300000000
#00555:0013000000000000
#00558:0000001300000000
#00552:0000000000000013
#0035b:0000000000000053
#00952:53
#00955:0000000000230000
#01258:0000000000000053
#0135b:0000005300000000
#01758:53
#0175b:00530000
#0195b:63
#01958:0000630000000013
#02858:0000005300000000
#03052:0000000000000013
#03055:0000000000530000
#03755:0053
#04152:0000000000000014
#0425b:0000000000000013
#04355:0013000000000000
#04358:0000001300000000
#04352:0000000000000013
#04458:0013000000000000
#04455:0000001300000000
#04552:0000000000000053
#0505a:0000000000000014
#05154:0014000000000000
#05158:0000001400000000
#05152:0000000000000014
#05258:0014000000000000
#05254:0000001400000000
#05858:00230000000000000000000000005400
#06052:0000001300000000
#06058:0000000000530000
#06652:0000000000000013
#06758:0013000000000000
#06755:0000001300000000
#0675b:0000000000000013
#06952:0000000000000063
#0045b:0000000000000013
#00658:0013000000000000
#00655:0000001300000000
#0075b:0000000000000053
#0105b:0053
#01058:0000000000000053
#01558:0000000000000053
#02155:63
#02152:00630000
#02258:0000000000000013
#02355:0000000000000013
#04652:0000000000000013
#04758:0013000000000000
#04755:0000001300000000
#0475b:0000000000000013
#04855:0013000000000000
#04858:0000001300000000
#0495b:0000000000000063
#05455:00230000000000000000000000000000
#05452:0000000000000014
#05352:0000000000000063
#05558:0014000000000000
#05554:0000001400000000
#0555a:0000000000000014
#05654:0014000000000000
#05658:0000001400000000
#0575b:0000000000000053
#0595a:00140000
#06452:0000001300000000
#06455:0053000000000000
#06855:0013000000000000
#06858:0000001300000000
#06254:0000000000000064
#06352:00140000
#07055:0013
#0033b0:0000000000000013
#004380:00230000
#0073b0:0000000000000013
#008380:00230000
#009320:13
#009350:0000000000530000
#010320:00230000
#0103b0:0013
#010380:0000000000003333
#0113b0:00230000
#011350:0000001300330000
#011340:00000033
#011330:0000000000000033
#012320:23
#012350:0000001300000023
#012320:0000000000330000
#012381:0000000000000013
#0133b1:0000003300000000
#013381:0000000000000023
#013340:0000000000000014
#014340:00003434003434000000240000000000
#014320:00340000
#014381:0000000000130023
#014350:0000000000000013
#015350:0023000000000000
#015380:0000000000000013
#0163b0:0023
#017380:1323
#0173b0:00330000
#0193b0:1323
#019380:00330000
#021350:1323
#021320:00330000
#023320:0013000000330000
#023350:0000003300000023
#028380:0000001300000000
#0283b0:00000023
#030350:0000000000130000
#030320:0000000000000023
#037350:0013
#037320:00000023
#045320:0000000000000013
#046350:00230000
#0493b0:0000000000000013
#050380:00230000
#053320:0000000000000013
#054350:00530000000000000000000000000000
#054320:00230000
#0573b0:0000000000000013
#058380:00530000000000000000000000000000
#0583b0:00230000
#058380:0000000000000014
#0593a0:00240000
#060380:0000000000130000
#0603b0:0000000000000023
#062340:0000000000000014
#063320:00240000
#064350:0013000000000000
#064320:0000002300000000
#069320:0000000000000013
#070350:0033333323000000
#012980:0013000000000000
#0129a0:00230000
#032980:0000001300000000
#0329a0:0023
