This file was generated by Ched 2.7.0.0.
#TITLE ""
#ARTIST ""
#DESIGNER ""
#DIFFICULTY 0
#PLAYLEVEL
#SONGID ""
#WAVE ""
#WAVEOFFSET 0
#JACKET ""
#REQUEST "ticks_per_beat 480"
#00002: 4
#BPM01: 186
#00008: 01
#TIL00: ""
#VOLUME: ""
#HISPEED 00
#MEASUREHS 00
#00018:0014
#00014:00000014
#0031a:14
#00314:00140000
#00318:0014
#00412:14
#00418:00140000
#00414:0014
#00718:14
#00714:00140000
#0071a:0014
#00712:00000014
#00818:14
#00814:00140000
#0081a:0014
#00912:1414
#00918:00140000
#0101a:1414
#01014:00140000
#01112:1414
#01118:00140000
#0121a:1414
#01214:00140000
#01512:14
#01518:00140000
#01514:0014
#0151a:00000014
#01612:14
#01618:00140000
#01614:0014
#0161a:00000014
#01718:0014
#01712:24
#01814:14
#0181a:0014
#01912:14
#0201a:14
#0211a:0014
#02114:14
#02212:14
#02218:0014
#02312:14
#02310:41
#0241a:14
#02518:00140000
#02514:0014
#0251a:00000014
#02512:24
#02614:14
#02618:00140000
#02612:0014
#02714:00140000
#02718:0014
#02712:00000014
#0271a:14
#02818:14
#02814:00140000
#0281a:0014
#02912:1414
#02918:00140014
#03014:1414
#0301a:00140014
#03314:00003414
#03312:14
#0331f:11
#03518:00003414
#0351a:14
#03712:00003414
#03714:14
#03713:00340000
#0391a:00003414
#03918:14
#03919:00340000
#04114:0014
#04218:1414
#04214:00140000
#04212:0000000000000024
#0421f:0000000000000021
#04512:14
#04518:00140000
#04514:0014
#0451a:00000014
#04612:14
#0461a:0000000000000024
#0491a:14
#04914:00140000
#04918:0014
#04912:00000014
#0501a:14
#05012:0000000000000024
#05312:14
#05318:00140000
#05314:0014
#0531a:00000014
#05412:14
#0541a:0000000000000024
#0571a:14
#05714:00140000
#05718:0014
#05712:00000014
#0581a:14
#05814:0000000000000014
#05918:0014
#05914:00000014
#05912:00240000
#0601a:14
#06012:00140000
#06018:0014
#06114:14
#0611a:00140000
#06112:0014
#06118:00000014
#06214:2400000000140000
#06218:0000240000000014
#06314:0014
#06318:00000014
#0631a:00240000
#06412:14
#0641a:00140000
#06414:0014
#0651a:14
#06512:00140000
#06518:0024
#06514:00000024
#0691a:14
#06914:00140000
#06918:0014
#06912:00000014
#07018:14
#07014:00140000
#0701a:0014
#04318:0024000000000000
#04314:0000002400000000
#0431a:0000000000000024
#04414:0024000000000000
#04418:0000002400000000
#04410:41
#04714:0024000000000000
#04718:0000002400000000
#04712:0000000000000024
#04818:0024000000000000
#04814:0000002400000000
#05118:0024000000000000
#05114:0000002400000000
#0511a:0000000000000024
#05214:0024000000000000
#05218:0000002400000000
#05514:0024000000000000
#05518:0000002400000000
#05512:0000000000000024
#05510:41
#05618:0024000000000000
#05614:0000002400000000
#06618:0000000000000024
#06714:0024000000000024
#0671a:0000002400000000
#06818:0024000000000000
#06812:0000002400000000
#01314:00343400
#01418:00343400
#01410:41
#03114:00343400
#0321a:00343400
#03210:41
#03414:34
#03618:34
#03812:34
#03813:00340000
#0401a:34
#04019:00340000
#00510:41
#0085a:0014
#01952:54
#0205a:54
#02352:54
#0245a:54
#03352:54
#03354:00000024
#03558:00000024
#0355a:64
#03752:00000024
#03754:64
#0395a:00000024
#03958:54
#04158:14
#04652:54
#0505a:64
#05452:54
#0585a:64
#05854:0000000000000064
#06258:0000000000000054
#0705a:0014
#05952:00140000
#0635a:00140000
#0013a0:14
#001390:00340000
#001380:0024
#002320:14
#002330:00340000
#002340:0024
#0053a0:14
#005390:00340000
#005380:0024
#006320:14
#006330:00340000
#006340:0024
#013320:14
#013340:00343424
#0143a0:14
#014380:00343424
#019320:14
#019340:0024
#0203a0:14
#020380:0024
#023320:14
#023340:0024
#0243a0:14
#024380:0024
#031320:14
#031340:00343424
#032380:14
#0323a0:00343424
#033320:14
#033340:00003454
#034340:34
#034320:0024
#0353a0:14
#035380:00003454
#036380:34
#0363a0:0024
#037340:14
#037330:00340000
#037320:00003434
#038320:34
#038330:00340000
#038340:0024
#039380:14
#039390:00340000
#0393a0:00003434
#0403a0:34
#040390:00340000
#040380:0034
#041380:24
#046320:14
#046340:0024
#0503a0:14
#050380:0024
#054320:14
#054340:0024
#0583a0:14
#058380:0024
#058340:0000000000000014
#059320:00240000
#062380:0000000000000014
#0633a0:00240000
