This file was generated by Ched 2.7.0.0.
#TITLE ""
#ARTIST ""
#DESIGNER ""
#DIFFICULTY 0
#PLAYLEVEL
#SONGID ""
#WAVE ""
#WAVEOFFSET 0
#JACKET ""
#REQUEST "ticks_per_beat 480"
#00002: 4
#BPM01: 140
#00008: 01
#TIL00: ""
#VOLUME: ""
#HISPEED 00
#MEASUREHS 00
#0011b:13131300
#00118:0013000000001300
#00112:13131300
#00115:0000001300000000
#0021b:0000001300001300
#00218:0000130013000033
#00212:1300000000330000
#00215:0013
#00912:13
#00915:00130000
#00918:00000013000000000000000000000000
#0091b:13000000000000130000000000000000
#00916:0000000000140013
#01017:1300005300130000
#0101b:0000130053000013
#01012:1300530000130000
#01016:0053000013000013
#01010:41
#01014:00530053000000000000000000000000
#01019:00000000005300530000000000000000
#01112:13000000000000130013001300000000
#01117:0000000013130000
#0111b:00000000005300000000000000130000
#01115:00530000000000000000000000001300
#01118:00000000130000000000000000000013
#01212:13130000
#0121b:00001300000013000000000000130000
#01215:00530000005300000000000000001300
#01218:00000053000000530000001300000013
#01312:24130013
#01318:00000000000000000000000000130000
#01315:0000000000000013
#0131b:00000000000000001300000000000013
#01316:00140000
#0131a:00240000000000000000000000000000
#01418:00130000001300130000001300000000
#01415:0013130000130013
#01412:2400002400001300
#0141b:00000000000000000000000000130000
#0141a:00000024000000000000000000000000
#0151a:14
#01516:00140000001400001300130000000000
#01512:00140013
#0151b:00000000000000130013001300000000
#01513:00000000000000000000000000530000
#01514:0000000000000053
#01515:00000000000000000000000000000053
#01712:13000000130000001400000000130000
#01717:00130000001300000000000000000000
#01714:0013001300000000
#01719:00000013000000130000000000000000
#01716:00000000000000000000001400000000
#01718:0000000000000013
#01715:00000000000000000000000000000013
#0171a:0000000000140000
#01710:41
#0191b:13001300000000000000000000130000
#01912:0000131313000000
#01916:00000000000000140000000000000000
#01915:00000000000000000000005300001300
#01918:00000000000000000000000000000013
#01913:00000000000000000053000000000000
#01914:0000000000530000
#02012:1313000013000000
#02018:00130013000000000000130000000000
#02015:00000000130013000013000000000000
#0201b:00000000001300130000001300000000
#0211b:0013000000000013
#02118:00000000000013000000001300000000
#02115:0013000000130000
#02112:24242424
#02218:00000013000000130013000000000000
#02215:000000130000000000130000000000130000000000005200
#02216:0000000000000012
#0221b:00000013
#02212:24242424
#02214:000000000000000000000000000000000000000000000052
#02312:0013000000000013
#02318:0013001300130000
#02315:00000000000000130000001300000000
#0231a:24242424
#02313:52
#02418:0013000000000000
#02412:0000001300002400
#02415:00000013000000000000000000000000
#0241a:24242400
#02416:0000000000240000
#02410:41
#02618:0000000000120000
#02616:00001212
#0261a:12
#0261b:0000000000000013
#02619:0000000000000000000000000000000000000000000000000000000000530053
#02617:00000000000000000000000000000053
#0291b:0000130000130000
#02917:0000001300000000
#02912:0000001300000013
#02916:00130000
#0301b:1300001300000000
#03015:00001300000000000000000000130000
#03018:0000130000130000
#03012:0000001300000000
#03118:1300000013131313
#03115:00000013000000130013001300130013
#0311b:0000001300000000
#03318:00001300000000000000001300000000
#03315:0000001300130000
#03316:0000000000000014
#0331a:2414
#03312:24242424
#0331f:21
#03415:00001300000000000000001300000000
#03418:00000000000013000000130000000054
#0341a:2400240024002414
#03412:2414
#03410:41
#03419:0000000000000000000000000000000000000000000000000000000000540000
#03417:0000000000000000000000000000000000000000000000000000000000000054
#03516:541400240014001400240014
#0351a:001414001414
#03512:2424
#03618:0000000000001400000000001400000000000000000000000000000000000054
#03616:00000000000000000000140000000054
#0361a:00001414
#03612:24002424
#03614:00240000
#04018:00000000000013000000001300001300
#04015:00000000000000130000130000000013
#0401a:2424
#04012:00240024
#04116:0014001400140014
#0411a:24000000000000002400001400000000
#04112:00240024
#04316:00130000001300000013000000130000
#0431a:2414241424142414
#04315:00000013000000000000000000000000
#04314:00000000000000130000000000000000
#04313:00000000000000000000001300000000
#04310:41
#04816:00140000001400000000140000000000
#04812:2424
#0481a:00240024
#04718:001300000013001300000013
#04715:001313001313
#04712:2424
#0471a:00240024
#0031b:00131300
#00318:0000001300000000
#00312:00131300
#00315:13000013
#00310:41
#00412:0000001300001300
#00415:0000130013000033
#0041b:1300000000330000
#00418:0013
#00516:0014001400140014
#00512:00240024
#0051a:2424
#00616:00141414
#0061a:2424
#00612:00240024
#00716:14141414
#00714:0014000000140000
#00718:0000001400000014
#0071a:2424
#00712:00240024
#0161b:1300000000130000
#01612:00130000
#01619:00005300000013000000005300000000
#01614:00000000005300001300000000000000
#01616:53000000000000000053000000000000
#0161a:00530000000000000000000000000000
#01618:00000053000000000000000000000000
#01617:00000000530000530000000000000000
#0181b:1300130000000013
#01816:00130000001300000000001400000000
#01819:0013001300000000
#01814:00000013000000130000000000000000
#0181a:0014
#01812:0000000000140013
#0251a:12
#02516:0012
#0251f:11
#02712:1300000000001454
#02716:000000000000001400000000
#0271a:000014
#02718:00130000
#0271b:5300005300000000
#02713:0000000000000000000000000000000000000000000000000000000000540000
#02714:00000000000000000000000000000054
#02715:0000000053000000000000000000000000000000000000000000000000000054
#0281a:1400000054000000540000000000000000000000000000140000000000000000
#02818:00000014
#02816:5400000000000000140000000000000000000000000000140000000000000000
#02814:00000000005400000000000014000000
#02812:0000005400000000
#03218:1300000000000000000000000000000000000000000000131600000000000000
#03212:00000016
#03715:00001300000000000000001300000000
#03718:0000001300130000
#03716:0000000000000014
#03712:2414
#0371a:64242424
#03818:00001300000000000000001300000000
#03815:0000000000000000000000001300000000000000130000000000000000000054
#03812:2400240024002414
#0381a:2414
#03813:0000000000000000000000000000000000000000000000000000000000540000
#03814:00000000000000000000000000000054
#03916:541400240014001400240014
#03912:001414001414
#0391a:2424
#04216:0014001400140014
#0421a:24000000000000002400001400000000
#04212:00000000240000140000000024000000
#04516:0014001400140014
#04512:00000000000000002400001400000000
#0451a:00240024
#04616:0014001400140014
#04612:24000000000000002400001400000000
#0461a:00000000240000140000000024000000
#00816:14
#0081a:2400002424000000
#00812:0000002424000000
#04412:14
#04418:00000014
#04414:00000014
#0441a:24
#0491b:00000000000000000000000000530000
#04918:00000053
#04913:00000000000000000053000000000000
#04916:0053
#0491a:00000000005300000000000000000000
#04917:00530000
#04912:00530000000000000000000000000000
#04915:53
#00552:00140014
#0055a:1414
#0065a:1414
#00652:00140014
#0075a:1414
#00752:00140014
#0085a:1464
#00852:0054
#00855:00000013
#00858:00000013
#0365a:00000054
#03654:00140000
#00152:0053
#00158:00000053
#00252:53
#00255:0053
#0025b:00000053
#00355:00000063
#0035b:0063
#0045b:63
#00458:0063
#00452:00000063
#00955:00130000
#00956:0000000000540000
#01052:0000000000130000
#01255:00000000000000000000001300000000
#01258:00000000000000000000001300000000
#01352:00630000
#0135b:0063
#01458:00000000000000130000000000000000
#01556:00340000004400000000000000000000
#01752:0034
#01756:00000000000000000000003400000000
#01856:00000000000000000000004400000000
#0185a:0044
#01955:00000000000000000000001300000000
#02056:0000000000000014
#0205b:00000000000000000000005300000000
#02452:00000014
#0255a:52
#02556:0052
#0265a:52
#02752:53
#02758:00530000
#0285a:0000000000000000000000000000000000000000000000240000000000000000
#02858:00000054
#02856:0000000000000000000000000000000000000000000000240000000000000000
#02854:00000054
#02956:14
#02952:14
#0295b:0000000000230000
#02957:0000006300000000
#03252:00000066
#03258:1300000000000000000000000000000000000000000000236600000000000000
#03052:0000006300000000
#03058:0000000000630000
#03055:00000000000000000000000000630000
#03158:63
#03155:00000063000000000000000000000000
#0335a:14
#03352:14
#0405a:14
#0415a:4444
#04152:00340034
#0425a:4444
#04252:00340034
#04552:3434
#0455a:44440044
#04652:3434
#0465a:00440044
#04856:00440000003400000000140000000000
#04852:0014
#0485a:00000014
#0445a:54
#04452:54
#04458:00000024
#04454:00000024
#01659:00000000000000000000001300000000
#0375a:44
#001320:0013
#001350:00000023
#001381:00000013
#0023b1:23
#002320:13
#002350:00230000
#002350:0013
#002320:0000000000332300
#0023b1:00000013
#002381:0000000000000033
#003381:23
#0033b1:0013
#003381:00000023
#003350:00000013
#004320:23
#0043b1:13
#004381:00230000
#004381:0013
#0043b1:0000000000332300
#004320:00000013
#004350:0000000000000033
#005350:23
#008320:0014
#008350:00000023
#0083a1:0014
#008381:00000023
#009321:0000000013230000
#009360:0000000000140000
#0093a0:0000000000000024
#012320:0013
#012350:00000000000000000033002300000000
#013320:00130000
#013360:0024
#0133b1:0013
#013361:00000024
#019361:1424000000000000
#019361:0000142400000000
#0203b1:00000000000000000000001300000000
#020361:0000000000000024
#0253a1:12
#025381:0022
#025360:0012
#026340:22
#0263a1:12
#026381:0022
#0283a1:0000000000000000000000000000000000000000140000540000000000000000
#028381:00000034
#028361:0000000000000000000000000000000000000000000000000054000000000000
#029361:24
#028360:0000000000000000000000000000000000000000140000540000000000000000
#028340:00000034
#028320:0000000000000000000000000000000000000000000000000054000000000000
#029320:24
#029370:0000001300000023
#0293b0:0000000000530000
#030320:0000001300000000
#030350:0000000000230000
#030381:0000000000130000
#0303b1:00000000000000000000000000230000
#030350:00000000000000000000000000130000
#031320:23
#031381:13
#0313b1:00000023000000000000000000000000
#031350:00000013000000000000000000000000
#031320:0000002300000000
#032320:0013000000000000
#032350:00000053230000000000000000000000
#032381:00130000
#0323b1:00000000005323000000000000000000
#032320:0000001300000000
#032350:00000000000000532300000000000000
#032381:0000000000000000000000000000000013000000000000533600000000000000
#0323b1:0000000000000000000000000000000000000000000000000053000000000000
#0333a1:24
#032320:0000000000000000000000000000000000000000000000001653000000000000
#033320:24
#0363a0:00000014
#036360:00000000000000000000000000000024
#0443a0:14
#044340:0000343434343400
#0453a0:24
#044321:14
#044381:0000343434343400
#045321:24
#010920:130000000000000000000000000000000000000000000000000000000000000000000000000000000000000000000000000000000000000000000000000000000000000000000000000000000000000000000000000000000000000000000000000000000000000000000000000000000000000000000000000000000000000000000000000000000000000000000000000000000000000000000000000000000000000000000000000000000000000000000000000000000000000000000000000000000000000000000000000000000000000000000000000000000000000000000000000000000000000000000000000000000000000000000000000000000000000000000000000000000000000000000000000000000000000000000000000000000000000000000000000000000000000000000000000000000000000000000000000000000000000000000000000000000000000000000000000000000000000000000000000000000000000000000000000000000000000000000000000000000000000000000000000000000000000000000000000000000000000000000000000000000000000000000000000000000000000000000000000000000000000000000000000000000000000000000000000000000000000000005353230000000000000000000000000000000000000000000000000000000000000000000000000000000000000000000000000000000000000000000000000000000000000000000000000000000000000000000000000000000000000000000000000000000000000000000000000000000000000000000000000000000000000000000000000000000000000000000000000000000000000000000000000000000000000000000000000000000000000000000000000000000000000000000000000000000000000000000000000000000000000000000000000000000000000000000000000000000000000000000000000000000000000000000000000000000000000000000000000000000000000000000000000000000000000000000000000000000000000000000000000000000000000000000000000000000000000000000000000000000000000000000000000000000000000000000000000000000000000000000000000000000000000000000000000000000000000000000000000000000000000000000000000000000000000000000000000000000000000000000000000000000000000000000000000000000000000000000000000000000000000000000000000000000000000000000000000000000000000000000000000000000000000000000000000000000000000000000000000000000000000000000000000000000000000000000000000000000000000000000000000000000000000000000000000000000000000000000000000000000000000000000000000000000000000000000000000000000000000000000000000000000000000000000000000000000000000000000000000000000000000000000000000000000000000000000000000000000000000000000000000000000000000000000000000000000000000000000000000000000000000000000000000000000000000000000000000000000000000000000000000000000000000000000000000000000000000000000000000000000000000000000000000000000000000000000000000000000000000000000000000000000000000000000000000000000000000000000000000000000000000000000000000000000000000000000000000000000000000000000000000000000000000000000000000000000000000000000000000000000000000000000000000000000000000000000000000000000000000000000000000000000000000000000000000000000000000000000000000000000000000000000000000000000000000000000000000000000000000000000000000000000000000000000000000000000000000000000000000000000000000000000000000000000000000000000000000000000000000000000000000000000000000000000000000000000000000000000000000000000000000000000000000000000000000000000000000000000000000000000000000000000000000000000000000000000000000000000000000000000000000000000000000000000000000000000000000000000000000000000000000000000000000000000000000000000000000000000000000000000000000000000000000000000000000000000000000000000000000000000000000000000000000000000000000000000000000000000000000000000000000000000000000000000000000000000000000000000000000000000000000000000000000000000000000000000000000000000000000000000000000000000000000000000000000000000000000000000000000000000000000000000000000000000000000000000000000000000000000000000000000000000000000000000000000000000000000000000000000000000000000000000000000000000000000000000000000000000000000000000000000000000000000000000000000000000000000000000000000000000000
#010960:0053000000000000
#0109b1:000000000000000000000000000000000000000000000000000000000000000000000000000000000000000000000000000000000000000000000000000000000000000000000000000000000000000000000000000000000000000000000000000000000000000000000000000000000000000000000000000000000000000000000000000000000000000000000000000000000000000000000000000000000000000000000000000000000000000000000000000000000000000000000000000000000000000000000000000000000000000000000000000000000000000000000000000000000000000000000000000000000000000000000000000000000000000000000000000000000000000000000000000000000000000000000000000000000000000000000000000000000000000000000000000000000000000000000000000000000000000000000000000000000000000000000000000000000000000000000000000000000000000000000000000000000000000000000000000000000000000000000000000000000000000000000000000000000000000000000000000000000000000000000000000000000000000000000000000000000000000000000000000000000000000000000000000000000000000000000000130000000000000000000000000000000000000000000000000000000000000000000000000000000000000000000000000000000000000000000000000000000000000000000000000000000000000000000000000000000000000000000000000000000000000000000000000000000000000000000000000000000000000000000000000000000000000000000000000000000000000000000000000000000000000000000000000000000000000000000000000000000000000000000000000000000000000000000000000000000000000000000000000000000000000000000000000000000000000000000000000000000000000000000000000000000000000000000000000000000000000000000000000000000000000000000000000000000000000000000000000000000000000000000000000000000000000000000000000000000000000000000000000000000000000000000000000000000000000000000000000000000000000000000000000000000000000000000000000000000000000000000000000000000000000000000000000000000000000000000000000000000000000000000000000000000000000000000000000000000000000000000000000000000000000000000000000000000000000000005353230000000000000000000000000000000000000000000000000000000000000000000000000000000000000000000000000000000000000000000000000000000000000000000000000000000000000000000000000000000000000000000000000000000000000000000000000000000000000000000000000000000000000000000000000000000000000000000000000000000000000000000000000000000000000000000000000000000000000000000000000000000000000000000000000000000000000000000000000000000000000000000000000000000000000000000000000000000000000000000000000000000000000000000000000000000000000000000000000000000000000000000000000000000000000000000000000000000000000000000000000000000000000000000000000000000000000000000000000000000000000000000000000000000000000000000000000000000000000000000000000000000000000000000000000000000000000000000000000000000000000000000000000000000000000000000000000000000000000000000000000000000000000000000000000000000000000000000000000000000000000000000000000000000000000000000000000000000000000000000000000000000000000000000000000000000000000000000000000000000000000000000000000000000000000000000000000000000000000000000000000000000000000000000000000000000000000000000000000000000000000000000000000000000000000000000000000000000000000000000000000000000000000000000000000000000000000000000000000000000000000000000000000000000000000000000000000000000000000000000000000000000000000000000000000000000000000000000000000000000000000000000000000000000000000000000000000000000000000000000000000000000000000000000000000000000000000000000000000000000000000000000000000000000000000000000000000000000000000000000000000000000000000000000000000000000000000000000000000000000000000000000000000000000000000000000000000000000000000000000000000000000000000000000000000000000000000000000000000000000000000000000000000000000000000000000000000000000000000000000000000000000000000000000000000000000000000000000000000000000000000000000000000000000000000000000000000000000000000000000000
#010971:0000005300000000
#011921:13
#011951:00230000000000000000000000000000
#011981:00130000
#0119b1:00000000002300000000000000000000
#012921:13
#012951:00230000000000000000000000000000
#0129b1:0013000000000000
#012981:00000023000000000000000000000000
#012921:00130000
#012951:00000000002300000000000000000000
#0129b1:0000001300000000
#012981:00000000000000230000000000000000
#015921:00000013
#016961:23
#0169b0:13
#016970:00230000
#016921:00130000
#016941:00000000002300000000000000000000
#016991:0000001300000000
#016971:00000000000000230000000000000000
#016941:0013
#016961:00000000000000000023000000000000
#0169b1:0000000000130000
#016991:00000000000000000000002300000000
#019921:0013
#019951:00000000000000000000002300000000
#022961:0000000000000012
#023931:22
#0269b1:0000000000000013
#026971:00000000000000000000000000000053
#0279b1:23
#027920:13
#027950:0023000000000000
#027980:00130000
#0279b0:0000002300000000
#027920:0000000000001454
#028960:24
#0289a1:14240000
#028960:00140000
#028920:0000002400000000
#0349a0:0000000000000014
#035960:24
#036960:00000000000000000000000000000014
#0379a0:24
#038920:0000000000000014
#039960:24
#049950:13
#049920:00230000000000000000000000000000
#049970:00130000
#0499a0:00000000002300000000000000000000
#049960:0013
#049930:00000000000000000023000000000000
#049980:00000013
#0499b0:00000000000000000000000000230000
