This file was generated by Ched 2.7.0.0.
#TITLE ""
#ARTIST ""
#DESIGNER ""
#DIFFICULTY 0
#PLAYLEVEL
#SONGID ""
#WAVE ""
#WAVEOFFSET 0
#JACKET ""
#REQUEST "ticks_per_beat 480"
#00002: 4
#BPM01: 140
#00008: 01
#TIL00: ""
#VOLUME: ""
#HISPEED 00
#MEASUREHS 00
#0011b:13131300
#00115:0000001300000000
#00118:00000013
#00112:13
#00918:00131300
#00915:00000013000000000000000000000000
#00912:00000000000000130000000000000000
#0091b:1300000000130000
#01018:0000000000000013
#01015:00130000
#01012:1333003300000000
#01010:41
#01112:1313
#01118:00130000000000000013000000000013
#01115:0000130000130013
#0111b:00000000001300000000001300130000
#01218:00000000000000000000000000130013
#01215:00333333000000000000000000001300
#0121b:00000000003333330000000000000000
#01515:0013
#01518:0000000000130000
#01512:14
#0151a:00140000
#01715:0000130000000013
#01712:1314
#01718:00001300000000000000001400000000
#0171b:0000001300000000
#01710:41
#01915:0000000000130013
#01918:00000000000000000013000000000013
#0191b:00000000000000000000001300130000
#01912:0013
#02112:0013000000130000
#02115:0000001300000013
#0211a:24242424
#02418:0013000000000000
#0241b:0000001300000000
#02412:24242400
#02416:00000024
#0241a:0000000000240000
#02410:41
#02618:0000000000130000
#02615:00000013
#02612:13
#0291b:0000001300000000
#02912:00130000
#02918:0000000000130000
#03012:13
#03015:0013000000000000
#03018:00130000
#0301b:0000001300000000
#03312:0013000000002400
#03315:0000001300000000
#03316:0000000000140014
#0331a:00242400
#0331f:21
#03415:0013000000000000
#03412:0000001300002400
#03416:0000000000140014
#0341a:24242400
#03410:41
#03614:00000014000014000000000000000000
#03612:0000000000140000
#03618:00240024
#0361a:2424
#04016:0000001400140014
#04012:2424
#0401a:00240024
#04316:0014001400140014
#0431a:24242424
#04312:00240024
#04310:41
#04812:0000240000140000
#04816:00140024
#0481a:2424
#00215:0000001300000000
#00218:0013
#0021b:00000013
#00718:0014000000140000
#0071a:0000001400000014
#00712:2424
#00714:00240024
#0181b:1300000000000013
#01815:0013000000000000
#01818:00130000
#01812:0000001300000000
#0181a:0014
#01814:00000000000000000000001400000000
#04216:0014000000140000
#04212:0000001400000014
#0421a:24242424
#00312:00131300
#00318:0000001300000000
#00315:00000013
#00310:41
#00418:0000001300000000
#00415:0013
#01312:00140000
#01316:0014
#01314:24
#01318:00240000000000000000000000000000
#0141b:0000000000130000
#01415:00000013
#01418:0000000000000013
#0221b:0013000000130000
#02218:0000001300000013
#02212:24242424
#02312:0013000000130000
#02315:0000001300000013
#0231a:24242424
#02512:13
#02518:0013
#0251f:11
#0271b:1313000000000000
#02715:00130000
#02718:0000001300000000
#02812:1400005400000000
#02818:0014000000000000
#02814:00140000
#02813:00000000005400000000000000000000
#03112:00000000000013333333333333333333
#03212:0000001400000000
#0321a:0014000024000000
#03216:00140000
#0371b:0013000000000000
#03718:0000001300000000
#03716:0000000000140014
#03712:24242400
#0371a:00000024
#03818:0013000000000000
#0381b:0000001300000000
#03816:0000000000140014
#03812:24242400
#0381a:00000024
#04116:0000001400000000
#04112:24
#0441b:0013000000000013
#04415:0013001300130000
#04418:00131313
#04412:0013
#0441a:24
#04616:0014000000140000
#04612:0000001400000014
#0461a:24242424
#0451a:0014000000140000
#04516:0000001400000014
#04512:24242424
#04912:13530000000000000000000000000000
#04915:00000000135300000000000000000000
#04918:00000000000000001353000000000000
#0491b:00000000000000000000000013530000
#00518:00240000
#00514:0024
#0051a:00000024
#00512:24
#00612:24
#00618:00240000
#00614:0024
#0061a:00000024
#00812:2424
#00818:0000002400000000
#0351a:2424
#03512:00240024
#03516:003400003400003400003400
#03912:2424
#0391a:00240024
#03916:003400003400003400003400
#0471a:2424
#04712:00240024
#04716:003400003400003400003400
#02015:00333333000000000000000000000000
#0201b:00000000003333330000000000000000
#02012:00000000000000000033330000000000
#00558:00140000
#00554:0014
#0055a:00000014
#00552:14
#00652:14
#00658:00140000
#00654:0014
#0065a:00000014
#00752:1414
#00754:00140014
#00852:1454
#00856:00000014
#0015b:0063
#00158:00000063
#01254:00000000000000000000001400000000
#02456:00000014
#02958:0000000000230000
#0295b:0000006300000000
#02956:14
#0425a:44444444
#00258:0053
#0025b:00000053
#00352:0053
#00355:00000053
#00455:0063
#00958:0053
#0095b:0000000000530000
#01052:5300000000130000
#01055:00530000
#01352:00540000
#01356:0054
#01452:00000000000000140000000000000000
#01552:34
#0155a:00440000
#01752:0014
#01758:00000000000000000000001400000000
#0185a:0014
#01854:00000000000000000000001400000000
#02052:0000000000000015
#02552:53
#02558:0053
#02652:53
#02758:0000005300000000
#03152:0000005300000000
#03658:00000014
#03752:14
#04152:54
#04156:0000002400000000
#0465a:44444444
#04552:34343434
#04856:00000014
#01657:00000000000000000000001300000000
#03256:14
#03356:14
#0013b0:0013
#001380:00000033
#0023b0:23
#002380:0013
#0023b0:00000033
#003380:23
#003320:0013
#003350:00000033
#004320:23
#004350:0013
#004320:00000033
#005320:24
#008320:0014
#008360:00000024
#009380:0000000013000023
#0093b0:0000000000330000
#010320:1333003333230000
#010350:00330000
#012320:13
#012350:00333333230000000000000000000000
#012381:00130000
#0123b1:00000000003333332300000000000000
#012340:00000000000000001434002400000000
#013320:00140034
#013360:0034
#013330:00000000000000000000000000340000
#013340:0000000000000034
#013350:00000000000000000000000000000034
#014360:34
#014350:00340000000000000000000000000000
#014340:0034000000000000
#014330:00000034000000000000000000000000
#014320:00000000340034240000000000000000
#015320:00000013
#015330:00000000000000000000000000330000
#015340:0000000000000033
#015350:00000000000000000000000000000033
#016360:33
#016350:00330000000000000000000000000000
#016340:0033000000000000
#016330:00000033000000000000000000000000
#016320:00230000
#0163b1:00130000
#0163a1:00000000003300000000000000000000
#016391:0000003300000000
#016381:00000000000000330000000000000000
#016371:00000000000000003333332300000000
#019341:1424000000000000
#019381:0000142400000000
#020321:13
#020351:00333333230000000000000000000000
#020380:00130000
#0203b0:00000000003333332300000000000000
#020351:0013
#020321:00000000000000000033333300002500
#025321:13
#025351:0023
#025380:0013
#0263b0:23
#026321:13
#026351:0023
#027381:0000001300002400
#0273a1:000000000000003400000000
#027391:000034
#0283a1:0000000000000000000000000000000000000000140000540000000000000000
#028381:00000034
#028361:0000000000000000000000000000000000000000000000000054000000000000
#029361:24
#0293b1:0000001300000023
#029381:0000000000530000
#030321:00000000000000000000130000230000
#030380:00000000000000000000000000130000
#031380:23
#031351:13000023000000000000000000000000
#0313b0:00000013000023000000000000000000
#031321:00000000000013333333333333333333
#032361:24
#0323a1:0014
#032361:00000000000000000000000034545454
#032371:0000000000000000000000000000000000000000000000000054005400540054
#033361:24
#0353a1:14
#035361:003434240000000000000000
#035320:00140000
#035360:000000003434240000000000
#0353a1:0014
#035361:000000000000003434240000
#035320:00000014
#035360:000000000000000000003434
#036360:24
#039320:14
#039360:003434240000000000000000
#0393a1:00140000
#039361:000000003434240000000000
#039320:0014
#039360:000000000000003434240000
#0393a1:00000014
#039361:000000000000000000003434
#040361:24
#041321:14000024
#041361:0000005400000000
#0473a1:14
#047361:003434240000000000000000
#047320:00140000
#047360:000000003434240000000000
#0473a1:0014
#047361:000000000000003434240000
#047320:00000014
#047360:000000000000000000003434
#048360:24
#028940:00140000
#028920:0000002400000000
#049920:13230000000000000000000000000000
#049950:00000000132300000000000000000000
#049980:00000000000000001323000000000000
#0499b0:00000000000000000000000013230000
