This file was generated by Ched 2.7.0.0.
#TITLE ""
#ARTIST ""
#DESIGNER ""
#DIFFICULTY 0
#PLAYLEVEL
#SONGID ""
#WAVE ""
#WAVEOFFSET 0
#JACKET ""
#REQUEST "ticks_per_beat 480"
#00002: 4
#BPM01: 122
#00008: 01
#TIL00: ""
#VOLUME: ""
#HISPEED 00
#MEASUREHS 00
#00414:00140000
#0041a:14
#00418:0014
#0151a:14
#01514:0014
#01518:00000014
#03012:00140000
#03018:0014
#03014:00000014
#0301a:24
#0301f:21
#00218:1414
#00214:00140014
#0031a:14
#00316:00140014
#00312:0014
#01318:14000014
#01312:0014
#01414:14000014
#0141a:0014
#02412:00000016
#02414:00140000
#02418:0014
#02515:16
#02518:00140014
#02518:00260000
#02514:0014
#0291a:14
#02912:00140000
#02918:00000014
#02914:0000000000000014
#00119:2414
#00113:2414
#00514:00140000
#00518:0014
#0051a:24
#00510:41
#00612:14
#00618:00140000
#00614:0014
#00718:14
#00714:00140000
#0071a:0014
#00716:00000014
#00812:14
#0081a:00140000
#00814:0014
#00818:00000014
#00918:00140000
#00914:0014
#00912:24
#0101a:14
#01014:00140000
#01018:0014
#01010:41
#01114:14
#01118:00140000
#01112:0014
#01116:00000014
#0121a:14
#01212:00140000
#01218:0014
#01214:00000014
#01612:14
#01618:0014
#01614:00000014
#01610:41
#01718:14
#01712:00140000
#0171a:0014
#01714:00000014
#01818:14
#01814:00140000
#0181a:0014
#01812:00000014
#0191a:14
#01914:00140000
#01918:0014
#01912:00000014
#0201a:14
#02012:00140000
#02018:0014
#02014:00000014
#02214:00140000
#02218:0014
#02212:00000014
#0221f:11
#02318:00140016
#02314:0014
#0311a:14
#03114:00140000
#03118:0014
#03112:00000014
#03110:41
#0321a:14140000
#03214:0014000000000000
#03212:00001414
#03218:0000000000140000
#03318:1400140000140000
#03314:0014001400001400
#0341a:00140000
#03414:0014
#03418:00000014
#03412:24
#03512:14
#03518:00140000
#03514:0014
#0351a:00000014
#03612:14
#0361a:00140000
#03614:0014
#03618:00000014
#0381a:14000014
#03814:00141400
#03818:0000001400000000
#03912:14000014
#03918:00141400
#03914:0000001400000000
#04018:14000014
#04014:00141400
#0401a:0000001400000000
#04114:14000014
#04118:00141400
#04112:0000001400000000
#04110:41
#0421a:14
#04218:0000001400001400
#04214:00140000
#04212:0014
#04312:14
#04314:0000001400001400
#04318:00140000
#0431a:0014
#04418:2616
#04412:00260000
#0451a:00140000
#04512:14
#04518:0000000000000024
#02119:00000034
#0211a:0000000000000034
#02110:41
#02814:0034
#02813:00340000
#03712:00343400
#0155a:14
#01358:14
#01454:14
#02854:00000014
#0305a:14
#03752:00000014
#0045a:14
#00458:0054
#0055a:14
#01652:14
#0225a:14
#02252:00000054
#02558:00160000
#03452:14
#03354:00000064
#0455a:00640000
#04558:0000000000000014
#04458:0016
#02352:16
#02358:00000056
#0245a:14
#004380:0014
#0053a0:24
#0213a0:1434000000000034
#021380:00000000003400000000340000000000
#021390:00000034
#0223a0:24
#022320:00000014
#023320:26
#023380:00000016
#0243a0:24
#026320:14
#026340:00240000
#0263a0:0014
#026380:00000024
#027340:14
#027320:00240000
#027380:0014
#0273a0:00000024
#028320:14
#028330:00340000
#028340:00003424
#033340:00000014
#034320:24
#037340:14
#037320:00343424
#0453a0:00140000
#045380:00000000000000000034343434002400
