This file was generated by Ched 2.7.0.0.
#TITLE ""
#ARTIST ""
#DESIGNER ""
#DIFFICULTY 0
#PLAYLEVEL
#SONGID ""
#WAVE ""
#WAVEOFFSET 0
#JACKET ""
#REQUEST "ticks_per_beat 480"
#00002: 4
#BPM01: 148
#BPM02: 150
#BPM03: 152
#00008: 01
#02308: 02
#02708: 03
#TIL00: ""
#VOLUME: ""
#HISPEED 00
#MEASUREHS 00
#00116:18
#00318:14
#00612:14
#00718:14
#00814:14
#0091a:14
#01012:14
#01118:14
#01214:14
#0131a:14
#01314:0014
#01310:41
#0141a:14
#01512:14
#01518:0014
#01612:14
#0171a:14
#01714:0014
#0181a:14
#01912:14
#01918:0014
#02012:14
#02414:14
#02518:14
#02612:14
#03112:0016
#03118:26
#0311f:21
#03312:16
#03318:0016
#03518:1616
#03612:1616
#03918:2616
#04012:2616
#04118:16
#04112:0016
#04218:16
#04212:0016
#04518:16
#04512:0016
#04718:0014
#04712:24
#04812:14
#0491a:14
#04914:0014
#0501a:14
#05118:0014
#05112:24
#05110:41
#05214:14
#0521a:0014
#05318:0014
#05312:24
#05414:14
#0541a:0014
#05518:0016
#05512:26
#05718:16
#05712:0016
#05912:16
#05918:0016
#06118:16
#06112:0016
#0231f:11
#06212:00000026
#02110:41
#03210:41
#04310:41
#00510:41
#00156:58
#00358:24
#001360:18
#003380:54
#005360:28
#0213a0:14
#022380:34
#0233a0:24
#0273a0:14
#028380:24
#029320:14
#030340:24
#032380:1626
#034320:1626
#037380:1626
#038320:1626
#043380:1626
#044320:1626
#046380:1626
#056320:1626
#058380:1626
#060320:1626
#062380:1626
