This file was generated by Ched 2.7.0.0.
#TITLE ""
#ARTIST ""
#DESIGNER ""
#DIFFICULTY 0
#PLAYLEVEL
#SONGID ""
#WAVE ""
#WAVEOFFSET 0
#JACKET ""
#REQUEST "ticks_per_beat 480"
#00002: 4
#BPM01: 148
#BPM02: 150
#BPM03: 152
#00008: 01
#02308: 02
#02708: 03
#TIL00: ""
#VOLUME: ""
#HISPEED 00
#MEASUREHS 00
#00112:1c3c3c3c
#00317:12
#00312:003c3c3c
#00518:00130000
#00515:0000001300000000
#0051b:0000000000000013
#00510:41
#00618:13
#00615:0013000000000000
#00612:00130000
#0061b:0000001300000000
#00715:00130000
#00718:0000001300000000
#00712:0000000000000013
#00815:13
#00818:0013000000000000
#0081b:00130000
#00812:0000001300000000
#0091b:1300000000000013
#00918:0013000000130000
#00915:00130013
#00912:0000001300000000
#01015:00000013
#01018:0000000000000013
#01118:00130000
#0111b:0000001300000000
#01112:13000000000000000000240000000014
#0111a:00000000000000000000000024000014
#01312:00131313
#01318:0000131300000013
#01310:41
#01412:13131313
#0141b:0013000000000000
#01418:0000001300000000
#0151b:13131313
#01515:0000131300000013
#01512:13
#0161b:13131313
#01612:0013000000000000
#01615:0000001300000013
#0171b:13131313
#01712:1300001300000013
#01715:0013000000130000
#0181b:13130013
#01812:0013
#01816:00130013
#01817:0013
#01814:0000000000000013
#01912:13131313
#0191b:1300001300000013
#01918:0013000000130000
#02012:13131313
#02018:0000001300000000
#0201b:0000000000130000
#02115:00130013
#02112:2300001300000013
#02118:0013000000130000
#0211b:2313
#02110:41
#02215:00001300000000001300130000130000
#02218:0000131300001313
#02212:00000000001300000000000000000000
#0221b:23000000000000000013000000000000
#02315:00000013
#0231b:13
#02318:0013
#0231f:11
#02312:23
#02418:0000001300001300
#02412:13
#02415:0013
#02512:0000001300001300
#02518:13
#0251b:0013
#02615:13
#02612:0013
#0261b:0013
#02715:0013001300000000
#02718:2300130000330000
#02712:0000000000130033
#0271b:0000000000000013
#02815:0013000000330000
#0281b:0000130000130033
#02818:2300001300000000
#02812:0000000000000013
#03112:00000013000000000000000000000000
#0311b:00130000
#03118:2400000013000024
#03114:00000024
#0311f:21
#03218:0000000000130000
#03215:00001313
#03212:0000130000000013
#0321b:00000013000000000000000000000000
#03214:24
#03210:41
#0331b:13000013
#03318:0013000013000000
#03315:0000130000130000
#03312:0000001300000013
#03418:0013001300000013
#03415:00130013
#0341b:00000000000000000013000000000000
#03512:1300000000130024
#0351b:1300130000130000
#03518:0000001300000000
#03515:0013
#03615:0000000000130013
#03618:00000013
#03616:0024000000000000
#0361a:0000002400000000
#03712:13
#0371b:1300001300000000
#03715:0013000000130013
#03718:00130013
#03812:00000013000000000000130000000000
#03818:0000000013000013
#03815:00000013
#0391b:2300000000130000
#03918:00000013
#03915:0000000000000013
#03916:23
#03919:00000023000000000000000000000000
#03914:00000023000000000000000000000000
#03912:0000002300000000
#03917:0000002300000000
#04018:0000000000130000
#04015:00000013
#04012:2300000000000013
#0401b:0000002300000013
#04017:23
#04014:00000023000000000000000000000000
#04019:00000023000000000000000000000000
#04016:0000002300000000
#04118:0013000013000000
#0411b:0000130000000013
#04112:00130000
#04115:0000000000001313
#04212:0013000000000013
#04218:0013000000000000
#04215:0000001313000000
#0421b:0000001313000000
#04217:0000000000000013
#0431b:00001300130000130000000000001300
#04316:00000013000013001300000000001300
#04317:00000000000000000000001300000000
#04310:41
#04412:00001300130000130000000000000000
#04417:00000013000013001300000000000000
#04415:0000000000000013
#04416:00000000000000000000001300000000
#04518:13130013
#0451b:0013000000130000
#04515:0000001300000013
#04612:00000013000000000000000000000000
#04615:0000000000000013
#04618:00000000240000002400000000000013
#0461a:0024002400000000
#04715:00000013000000000000000000000000
#04718:00000013000000000000000000000000
#04712:23
#0471b:0000002300000000
#04812:13000000001300000000000000000000
#04815:00001300000000000000000013000013
#0481b:00000013000000000000000000000000
#04818:0000001300000013
#0491b:1300001300000000
#04912:00000000001300000000000000000000
#04915:00000000000000130000000000001300
#04918:00000000000000001300000000000013
#0501b:0013001300000000
#05015:00000013001300000000000013000000
#05012:1300000000130000
#05018:0000000000000013
#0511b:2300000023130000
#05118:00000013
#05115:0000000000000013
#05112:00000033130000330000000000000000
#05116:23
#05117:00230000
#05110:41
#05316:2300000023000013
#05314:00000013
#05312:0000230000130000
#0531b:23000000000000330000000000001300
#05319:00000013
#05317:00000033130000000000130000000000
#05217:2300000000000013
#05219:00000013
#0521b:00000033130000330000130000000000
#05212:2300000023000013
#05214:00000013
#05216:0000230000130000
#05416:00000033130000000000000023000000
#05417:2323
#0541b:00230023
#05412:23000000000000330000000000000000
#05515:00130000
#05518:0000001300000000
#05512:2300000000000014
#0551b:23
#05618:0000140000001313
#05615:00000000000000000000000000130000
#05614:14
#05616:0014000000000000
#05612:0000001400000000
#0561a:0000001400000000
#05718:00130000
#05715:0000001300000000
#0571a:0000000000000014
#05712:23
#0571b:23
#05818:14000000000000000000000000130000
#05816:0014000000000000
#05814:00140000
#0581a:0000001400000000
#05815:0000000000001313
#05812:0000001400000000
#05912:2300130000000014
#0591b:2300001300000000
#05917:00130000
#05916:0000001300000000
#06018:0000140000001313
#06015:00000000000000000000000000130000
#06014:14
#06016:0014001400000000
#0601a:0000001400000000
#0611b:23130000
#06112:2300001300000000
#06116:00130000
#06117:0000001300000000
#0611a:0000000000000014
#01218:13
#01215:13
#06218:14
#06216:0014001400230000
#06214:00140023
#06212:0000001400000023
#0621b:0000000000230000
#06219:00000023
#06217:0000000000000023
#02918:00001300000000130000130000000013
#02915:23000013000013000000001300001300
#0291b:00130013
#02912:0013
#03012:1313
#0301b:00130000
#03018:00000000000000530000000024000000
#03014:0053000000000024
#03013:00530000000000000000000000000000
#03015:00000053000000000000000000000000
#03016:00530000
#0301a:00000000005300000000000000000000
#03019:0000005300000000
#03017:0053
#00412:3c3c3c3c
#00212:3c3c3c3c
#00152:5c
#00357:22
#00555:0000005300000000
#0065b:0000001300000000
#00758:0000006300000000
#00852:0000001300000000
#01152:53000000000000000000000000000024
#0115a:00000000000000000000000000000024
#01458:0000001300000000
#01655:0000001300000000
#0195b:0000000000000013
#02355:0000001300001300
#0235b:53
#02358:0023
#02352:53
#02458:0000001300001300
#02452:63
#02455:0023
#02552:0000001300001300
#02558:63
#0255b:0023
#02655:53
#02652:0023
#03054:0000000000000054
#03057:0013
#03052:0013
#03152:00000023000000000000000000000000
#03158:1400000000000064
#03352:0000001300000053
#03355:0000000000130000
#03458:0000005300000000
#0345b:00000000000000000023000000000000
#03552:1300000000000014
#0365a:0000001400000000
#03656:0014000000000000
#0375b:0000005300000000
#03755:0000000000000053
#03852:00000023000000000000000000000000
#0395b:13
#03959:00000013000000000000000000000000
#03957:0000001300000000
#03956:13
#03954:00000013000000000000000000000000
#03952:0000001300000000
#04052:1300000000000053
#04057:13
#04054:00000013000000000000000000000000
#04059:00000013000000000000000000000000
#0405b:0000001300000000
#04056:0000001300000000
#04255:0013
#0425b:0013
#04252:0000000000000053
#04356:0053
#04352:00000000000000000000001300000000
#0435b:0000000000000063
#04457:0063
#0445b:00000000000000000000001300000000
#04555:0000005300000053
#04652:00000023000000000000000000000000
#04755:00000023000000000000000000000000
#04752:5300003300000000
#0475b:0000004300000000
#04858:0000005300000000
#0495b:53000000000000000000001300000000
#04958:00000013000000005300000000000000
#0505b:0000006300000000
#05357:00630000
#05356:13
#0535b:63
#0515b:13
#05156:53
#05152:00230000
#0525b:00230000
#05252:13
#05257:63
#05456:00530013
#05457:1313
#05452:53
#05558:0000005300000000
#05755:0000006300000000
#0585a:0000001400000000
#0595b:0000005300000000
#06152:0000006300000000
#01258:53
#01255:53
#05652:0000001400000000
#06056:0000003400000000
#06256:0000004400000000
#0325b:00000023000000000000000000000000
#03254:14
#01752:0000000000000013
#001320:1c3c3c3c
#002320:3c3c3c3c
#003370:32
#003320:003c3c3c
#004320:3c3c3c3c
#005320:2c
#005350:0000001300000000
#005320:00000023
#007380:0000001300000000
#0073b0:00000023
#011320:13
#011350:00230000
#011320:00000000000000000000140000003454
#012350:33
#013320:23
#0113a1:00000000000000000000000014003454
#012381:33
#0133b1:23
#0233b1:13
#023381:0053
#0243b1:23
#023320:13
#023350:0000002300000000
#024320:13
#024350:0053
#025320:23
#025381:13
#0253b1:0053
#026381:23
#026350:13
#026320:0033
#027350:23
#0273b0:0013
#027380:0000000000332300
#027351:00000013
#027321:0000000000000033
#028321:23
#028321:0013
#028351:0000000000332300
#028380:00000013
#0283b0:0000000000000033
#0293b0:23
#030340:0000000000000014
#031320:00000053000000000000000000000000
#031340:0024
#031380:0000000000000014
#0323b0:00000053000000000000000000000000
#032380:0024
#033320:0000000000000013
#034350:0023000000000000
#034380:0000001300002300
#0343b0:00000000000000000053000000000000
#0373b0:0000001300000000
#037380:0000000000230000
#037350:0000000000000013
#038320:00000053000000000000000000000000
#038350:0023
#040320:0000000000000013
#041350:0023000000000000
#042320:0000000000000013
#043360:0023000000000000
#043360:0013
#043320:00000000000000000000002300000000
#0433b0:0000000000000013
#044370:0023000000000000
#044370:0013
#0443b0:00000000000000000000002300000000
#045350:0000001300000000
#045320:0000000000230000
#045350:0000000000000013
#046320:00000053000000000000000000000000
#046350:0023
#047320:1300002300000000
#047350:00000033000000000000000000000000
#0473b0:0000000000132300
#047351:0000000000001323
#047380:0000000000000013
#048380:23
#048380:0000001300000000
#0483b0:00000023
#0493b0:13
#049380:00000023000000000000000000000000
#049380:0013
#0493b0:00000000000000000000002300000000
#0503b0:0000001300000000
#050380:0000000000230000
#051360:1323
#051320:00000033330000330000000000000000
#052370:1323
#0523b0:00000033330000330000000000000000
#0533b0:13000000000000332300000000000000
#053370:00000033330000000000000000000000
#054320:13000000000000332300000000000000
#054360:00000033330000000000000000000000
#055380:0000001300000000
#0553b0:0000000000000023
#057350:0000001300000000
#057320:0000000000000023
#0593b0:0000001300000000
#059370:0000000000000023
#061320:0000001300000000
#061360:0000000000000023
#030920:13
#030960:00230000
#0309b1:00130000
#030971:0023
