This file was generated by Ched 2.7.0.0.
#TITLE ""
#ARTIST ""
#DESIGNER ""
#DIFFICULTY 0
#PLAYLEVEL
#SONGID ""
#WAVE ""
#WAVEOFFSET 0
#JACKET ""
#REQUEST "ticks_per_beat 480"
#00002: 4
#BPM01: 137.5
#00008: 01
#TIL00: ""
#VOLUME: ""
#HISPEED 00
#MEASUREHS 00
#0021b:00130000
#00215:0000001300000000
#00218:0000000013000013
#00212:2400000000130000
#0021a:24
#00315:0000130000000013
#0031b:0000001300000000
#00312:0000000000130000
#00318:00000013
#00412:24130000
#00418:0000001300000000
#00415:0000000013000013
#0041b:0000000000130000
#0041a:24
#00618:00130000
#0061a:24
#00612:24
#0061b:00000000000033330000000000000000
#00610:41
#00715:13130000
#00712:00000000000033330000000000000000
#0081b:00130000
#00818:00000000000033330000000000001300
#00812:0000000000000023
#0091b:0013000000130000
#00918:0000001300001300
#00915:0013000000130000
#00912:0000001300001300
#01015:00130000
#01018:0000000000002323
#01018:00000023
#01012:00000000000033330000230000000000
#0111b:0013000000000000
#01118:0000001300000013
#01115:00000013
#01212:0013000000000013
#01218:00130013
#01215:0000001300000000
#01318:0013000000000000
#01319:0000000000000013
#01312:0000000000230000
#0131a:00000000000000000000000000000053
#01415:0013000000000000
#01418:00000000000013000000000000000053
#01414:00000053000000000000130000000000
#01417:0000000000000013
#01410:41
#0141b:53
#01413:00000000530000000000005300000000
#01419:00000000000000530000000000000000
#0141a:0053
#01412:00000053
#01512:0013001300000000
#01518:00130013
#01514:0000000000000013
#01519:53
#01513:00000000000000000000000000000053
#01618:0013000000000000
#01615:00000000000013000000000000000053
#01619:00000053000000000000130000000000
#01616:0000000000000013
#01612:53
#0161a:00000000530000000000005300000000
#01614:00000000000000530000000000000000
#01613:0053
#0161b:00000053
#0171b:0013001300000000
#01715:00130013
#01718:0000000000000013
#01714:53
#01719:00000000000000000000000000000053
#01812:0000131300000000
#0181b:0000131300000000
#01818:0000000000000023
#01815:0000000000000023
#0181a:53
#01918:00000013000000000000130000001300
#0191b:13
#01912:13
#01915:00000013000000000000000013000000
#02015:23000013000000000000000000000000
#02012:00000013
#02018:00000013
#0201b:00000023000000000000000000000000
#02112:0013
#02118:0000000000130000
#02115:00000013
#0211b:0000000000000013
#02217:00141414
#0221f:11
#02315:00141414
#02417:00140000
#02418:0014
#02419:00000014
#02515:00140000
#02514:0014
#02513:00000014
#02617:00140000
#02618:0014
#02619:00000014
#02715:00140000
#02714:0014
#02713:00000014
#02815:0014
#02812:14
#02819:00140014
#0281a:0014
#02917:0014
#0291a:14
#02913:00140014
#02912:0014
#03015:14
#03017:0014
#03012:0034343400000000
#0301a:0000000000343434
#03112:2414000000000000
#0311a:0014000000240000
#03118:0000001300000000
#03115:0000001300000000
#03312:0014001400140000
#03316:00140014
#0331a:0000000014000014
#03412:1400000000000014
#0341a:0000000000140000
#03416:00000014
#03815:13
#0381b:13
#0381a:0000002400000024
#03812:0024
#03818:0000000000240000
#03814:00000024
#03916:00000000001400000000000000000000
#04112:0014001400140014
#04116:00140014
#0411a:0014
#0421a:1400000000000014
#04212:0000000000140000
#04216:00000014
#0441b:0000001300000000
#04412:0000000000000013
#04516:0000000000130000
#04514:00000013
#04512:0000000000000013
#0451b:0000000000230000
#04519:00000023
#04517:0000000000000023
#0461b:00130000
#04617:0000000000000013
#04616:00130000
#04612:0000000000000013
#04618:0000001300000000
#04613:0000001300000000
#0471b:00000013000000000000130000000000
#04716:00000013000000000000000013000000
#04812:0000000000140000
#04816:0023000000001400
#04918:0000000000140000
#04919:00000014
#0491a:0000000000000014
#04916:0024000000000000
#04914:0000000000240000
#04913:00000024
#04912:0000000000000024
#05015:0015
#05019:00250025
#05012:0000002500000025
#05115:0016
#05118:26
#05110:41
#05212:0014001400000000
#05216:00140000
#0521b:0000000000130000
#05218:00000013
#05215:0000000000000013
#05312:24130000
#05315:0000001300000000
#05318:0000000013000024
#0531b:0000000000130000
#0531a:24
#05314:00000024
#05416:0015
#05412:00250025
#05419:0000002500000025
#05515:0016
#05512:26
#0561a:0014001400000000
#05616:00140000
#05612:0000000000130000
#05615:00000013
#05618:0000000000000013
#0571b:00130000
#05718:0000001300001300
#05715:0000000013000013
#05712:2400000000130000
#0571a:24
#0591a:00140000
#05917:0014
#05915:00240000
#05912:0024
#05910:41
#06017:00000014
#06012:24000014
#06018:0024000000000000
#06014:00240000
#0601a:0000002400000000
#06112:0000140000000014
#06115:0014
#06117:0000240000000024
#0611a:0024
#06215:0014000000140000
#06212:0000001400000000
#0621a:0024000000140000
#06217:0000002400000000
#06312:00140000
#06315:0014
#06317:00240000
#0631a:0024
#06415:00000014
#0641a:24000014
#06414:0024000000000000
#06418:00240000
#06412:0000002400000000
#0651a:0000140000000014
#06517:0014
#06515:0000240000000024
#06512:0024
#06617:0014000000140000
#0661a:00000000000014000000000000140000
#06612:0024000000140000
#06615:00000000000024000000000000140000
#0671b:0000130000000013
#06718:0000001300000000
#06715:0013
#06712:0000000000130000
#06710:41
#06818:0000000000130000
#06815:00000013
#06812:0013001300000013
#06817:00130000
#06912:0000130000000013
#06915:0000001300000000
#06918:0013
#0691b:0000000000130000
#0691a:24
#0701b:0013001300000023
#07016:00130000
#07015:0000000000230000
#07018:00000023
#00518:0000130000000023
#00512:0000001300000000
#00515:00000023
#0051b:0000000000230000
#0321b:2300002300000023
#03212:2323
#03215:0023000000230000
#03218:00230023
#0321f:21
#03210:0041
#0351a:24
#03515:0000000000230000
#03518:00000023
#03512:0000000000000023
#04012:24
#04014:0024000024000000
#04016:0000240000240000
#04018:0000002400002400
#0401a:0000000000000024
#0401a:0000000000000024
#04312:24
#04318:0000000000230000
#04315:00000023
#0431b:0000000000000023
#05812:24
#07112:28
#03615:00330000
#03618:00000033
#03712:00330000
#07412:00000062000000000000000000000000
#00258:0000000000000063
#0025a:14
#00252:14
#0035b:0000001300000000
#0065a:14
#00652:14
#00658:00630000
#0065b:0000000000130000
#00755:0000530000000013
#00858:0000000000130063
#0085b:00630000
#00852:0000000000000063
#0095b:0063000000630000
#00958:0000006300006300
#00955:0063000000630000
#00952:0000006300006300
#0105b:13
#01055:13530000
#01052:0000000000130000
#01058:0000000000000063
#0115b:0063000000000000
#01158:0000006300000013
#01255:0000006300000000
#01252:0000000000000063
#01358:0063000000000000
#0135b:0000001300000000
#01352:0000000000130000
#01555:0000000000130000
#01552:0000006300000000
#01558:00000013
#0175b:0000005300000000
#01755:00000013
#01758:0000000000130000
#01852:0000006300000000
#0185b:0000006300000000
#01858:0000000000000063
#01855:0000000000000053
#0195b:6300001300000000
#01958:00000063000000000000000000000000
#01952:5300001300000000
#01955:00000053000000000000000000000000
#02055:00000063000000000000000000000000
#02052:00000023
#02058:00000023
#0205b:00000063000000000000000000000000
#02155:00130000
#0215b:00130000
#02855:0024
#02852:64
#02957:0024
#0295a:54
#03055:64
#03057:0054
#03152:0064000000140000
#0315a:0064000000140000
#03155:0000006300000000
#03158:0000006300000000
#0325b:0000000000000013
#03455:0000001400000000
#03452:64
#03557:0000001400000000
#0355a:64
#03855:63
#0385b:63
#03852:00000013000000000000000000000000
#03858:00000013000000000000000000000000
#0385a:0000000000000064
#0395a:00000044
#03956:00000000002400000000000000000000
#0405a:0000000000000014
#0425a:54
#04257:0000001400000000
#04352:54
#04355:0000001400000000
#04555:0000001300000000
#04558:0000001300000000
#04557:0000000000000063
#04552:0000000000000063
#0445b:0000006300000000
#04452:0000000000000063
#0465b:00630000
#04657:0000000000000063
#04656:00630000
#04652:0000000000000063
#04658:0000006300000000
#04653:0000006300000000
#0475b:00000023000000000000000000000000
#04756:00000023000000000000000000000000
#04852:0000001300000000
#04857:0000001300000000
#04956:0000001400000000
#0495a:0000001400000014
#04952:0000000000000014
#05055:0025
#05052:0000006500000000
#05155:0026
#05158:66
#05252:0000001400000000
#05358:0000000000000014
#05456:0025
#05459:0000005500000000
#05555:0026
#05552:56
#0565a:0000001400000000
#05952:1664
#05958:16
#05957:0064
#06057:00000064
#0605a:0000006400000014
#06055:0000000000000014
#06052:00000064
#06155:0054
#0615a:0054
#06252:0000006400001400
#06255:0000000000640000
#06257:0000006400001400
#0625a:0000000000640000
#06355:0054
#0635a:0054
#06455:00000054
#0645a:00000054
#06452:0000005400000014
#06457:0000000000000014
#06557:0064
#06552:0064
#0665a:00000000000054000000000000240000
#06657:0000000000540000
#06652:0000000000540000
#06655:00000000000064000000000000240000
#06752:14
#06757:14
#0675b:0000000000000063
#07152:68
#06852:0000001300000000
#06952:0000000000000053
#0705b:0000001300000000
#00455:0000000000000053
#00552:0000001300000000
#002380:0000000000000013
#0033b0:0023000000000000
#004350:0000000000000013
#005320:0023000000000000
#006380:00130000
#0063b0:00000000000033333300230000000000
#007350:0000130000330023
#007320:00000000000033333300000033000000
#0083b0:00130000
#008380:00000000000033333300230000000000
#008380:0000000000000013
#0093b0:0033000000330000
#009380:0000003300003300
#0103b0:23
#008321:0000000000000013
#009351:0033000000330000
#009321:0000003300003300
#010351:23
#010351:00130000
#010321:00000000000033333300230000000000
#010381:0000000000000013
#0113b1:0033000000230000
#011381:0000003300000000
#012351:0000001300000000
#012321:0000000000230000
#012321:0000000000000013
#013351:0023000000000000
#013380:0013000000000000
#0133b0:0000002300000000
#015320:0000001300000000
#015350:0000000000230000
#0173b0:0000001300000000
#017380:0000000000230000
#018320:0000001300000000
#018350:0000000000230000
#0183b1:0000001300000000
#018381:0000000000230000
#018381:0000000000000013
#0193b1:3300002300000000
#019381:00000033000000000000000000000000
#018350:0000000000000013
#019320:3300002300000000
#019350:00000033000000000000000000000000
#020350:13000033000000000000000000000000
#020320:00000053
#021350:00230000
#0203b1:00000013000000000000000000000000
#020381:00000053
#0213b1:00230000
#022321:14
#023321:24
#0233a0:14
#0243a0:24
#024321:14
#025321:24
#0253a0:14
#0263a0:24
#026321:14
#027361:24
#0273a0:14
#028360:24
#028321:14
#028351:0054
#029321:24
#0293a0:14
#029370:0054
#0303a0:24
#030351:14
#030321:0034343424000000
#030370:0014
#0303a0:0000000000343434
#0313a0:3434000000240000
#031380:0000003300000000
#031321:1434000000240000
#031351:0000003300000000
#034321:14
#034351:0000342400000000
#0353a1:14
#035371:0000342400000000
#0353b1:0000000000000013
#0363b1:0000000000330000
#036381:0000000000003333
#037381:0000000000330000
#037391:00000033
#0373a1:0000000000000033
#0383b1:33
#038381:00000023000000000000000000000000
#035320:0000000000000013
#036320:0033000000000000
#036350:0000333300000000
#037350:0033000000000000
#037320:0000333300330000
#037330:00000033
#037340:0000000000000033
#038350:33
#038320:00000023000000000000000000000000
#0383a0:0000000000000014
#039360:00000000005400000000000000000000
#0393a0:00000024
#0423a0:14
#042370:0000342400000000
#043320:14
#043350:0000342400000000
#043320:0000000000000013
#044320:0000000000330033
#044350:00000033
#045350:0053002300000000
#0433b1:0000000000000013
#0443b1:0033003300000000
#044381:0000330000530000
#045381:0033002300000000
#0453b1:00330000
#045321:0000000000000013
#046361:0000330000330000
#046331:0000003300000000
#046341:00000033
#046321:0000000000000033
#047361:00000053000000000000000000000000
#047321:0023
#045370:0000000000000013
#0463b0:0000330000330000
#046380:0000003300000000
#046390:00000033
#046370:0000000000000033
#0473b0:00000053000000000000000000000000
#047370:0023
#0473b0:0000000000000013
#0483b0:0033000000000000
#048390:00330000
#048370:0000002300000000
#048361:0013000000000000
#048341:00330000
#048321:0000002300000000
#048321:0000000000000014
#049321:0034000000000000
#049341:00340000
#049361:0000002400000000
#049360:0014000000000000
#049380:00340000
#0493a0:0000002400000000
#050320:0000001500250000
#050350:0055
#051380:16
#051350:0056
#052380:26
#054390:0000001500250000
#054360:0055
#055320:16
#055350:0056
#056320:26
#058320:14
#059320:26
#0583a1:14
#059381:26
#059321:0014
#059351:00000024
#059370:0014
#0593a0:00000024
#0603a0:0000001400000024
#060370:00000034
#060321:00000014
#060351:0000000000000024
#0613a1:0014
#061371:00000024
#061350:0014
#061320:00000024
#062320:0000001400002400
#062350:0000000000340000
#062371:0000001400002400
#0623a1:0000000000340000
#0633a1:0014
#063371:00000024
#063350:0014
#063320:00000024
#064320:0000001400000024
#064350:00000034
#0643a1:00000014
#064371:0000000000000024
#065321:0014
#065351:00000024
#065370:0014
#0653a0:00000024
#0663a0:00000000000014000000000000540000
#066370:0000000000340000
#067370:24
#066351:00000000000014000000000000540000
#066321:0000000000340000
#067321:24
#0673b1:0000000000000013
#068371:0023000000000000
#069321:0000000000000013
#070361:0023000000000000
#071321:18
#074321:00000022000000000000000000000000
#013990:0000000000000013
#0139b0:000000000000000000000000000000000000000000000000000000000000000000000000000000000000000000000000000000000000000000000000000000000000000000000000000000000000000000000000000000000000000000000000000000000000000000000000000000000000000000000000000000000000000000000000000000000000000000000000000000000000000000000000000000000000000000000000000000000000000000000000000000000000000000000000000000000000000000000000000000000000000000000000000000000000000000000000000000000000000000000000000000000000000000000000000000000000000000000000000000000000000000000000000000000000000000000000000000000000000000000000000000000000000000000000000000000000000000000000000000000000000000000000000000000000000000000000000000000000000000000000000000000000000000000000000000000000000000000000000000000000000000000000000000000000000000000000000000000000000000000000000000000000000000000000000000000000000000000000000000000000000000000000000000000000000000000000000000000000000000000000000000000000000000000000000000000000000000000000000000000000000000000000000000000000000000000000000000000000000000000000000000000000000000000000000000000000000000000000000000000000000000000000000000000000000000000000000000000000000000000000000000000000000000000000000000000000000000000000000000000000000000000000000000000000000000000000000000000000000000000000000000000000000000000000000000000000000000000000000000000000000000000000000000000000000000000000000000000000000000000000000000000000000000000000000000000000000000000000000000000000000000000000000000000000000000000000000000000000000000000000000000000000000000000000000000000000000000000000000000000000000000000000000000000000000000000000000000000000000000000000000000000000000000000000000000000000000000000000000000000000000000000000000000000000000000000000000000000000000000000000000000000000000000000000000000000000000000000000000000000000000000000000000000000000000000000000000000000000000000000000000000000000000000000000000000000000000000000000000000000000000000000000000000000000000000000000000000000000000000000000000000000000000000000000000000000000000000000000000000000000000000000000000000000000000000000000000000000000000000000000000000000000000000000000000000000000000000000000000000000000000000000000000000000000000000000000000000000000000000000000000000000000000000000000000000000000000000000000000000000000000000000000000000000000000000000000000000000000000000000000000000000000000000000000000000000000000000000000000000000000000000000000000000000000000000000000000000000000000000000000000000000000000000000000000000000000000000000000000000000000000000000000000000000000000000000000000000000000000000000000000000000000000000000000000000000000000000000000000000000000000000000000000000000000000000000000000000000000000000000000000000000000000000000000000000000000000000000000000000000000000000000000000000000000000000000000000000000000000000000000000000000000000000000000000000000000000000000000000000000000000000000000000000000000000000000000000000000000000000000000000000000000000000000000000000000000000000000000000000000000000000000000000000000000000000000000000000000000000000000000000000000000000000000000000000000000000000000000000000000000000000000000000000000000000000000000000000000000000000000000000000000000000000000000000000000000000000000000000000000000000000000000000000000000000000000000000000000000000000000000000000000000000000000000000000000000000000000000000000000000000000000000000000000000000000000000000000000000000000000000000000000000000000000000000000000000000000000000000000000000000000000000000000000000000000000000000000000000000000000000000000000000000000000000000000000000000000000000000000000000000000000000000000000000000000000000000000000000000000000000000000000000000000000000000000000000000000000000000000000000000000000000000000000000000000000000000000000000000000005353
#0149b0:23
#014950:0013000000000000
#014930:000000000000000000000000000000000000000000000000000000000000000000000000000000000000000000000000000000000000000000000000000000000000000000000000000000000000000000000000000000000000000000000000000000000000000000000000000000000000000000000000000000000000000000000000000000000000000000000000000000000000000000000000000000000000000000000000000000000000000000000000000000000000000000000000000000000000000000000000000000000000000000000000000000000000000000000000000000000000000000000000000000000000000000000000000000000000000000000000000000000000000000000000000000000000000000000000000000000000000000000000000000000000000000000000000000000000000000000000000000000000000000000000000000000000000000000000000000000000000000000000000000000000000000000000000000000000000000000000000000000000000000000000000000000000000000000000000000000000000000000000000000000000000000000000000000000000000000000000000000000000000000000000000000000000000000000000000000000000000000005353230000000000000000000000000000000000000000000000000000000000000000000000000000000000000000000000000000000000000000000000000000000000000000000000000000000000000000000000000000000000000000000000000000000000000000000000000000000000000000000000000000000000000000000000000000000000000000000000000000000000000000000000000000000000000000000000000000000000000000000000000000000000000000000000000000000000000000000000000000000000000000000000000000000000000000000000000000000000000000000000000000000000000000000000000000000000000000000000000000000000000000000000000000000000000000000000000000000000000000000000000000000000000000000000000000000000000000000000000000000000000000000000000000000000000000000000000000000000000000000000000000000000000000000000000000000000000000000000000000000000000000000000000000000000000000000000000000000000000000000000000000000000000000000000000000000000000000000000000000000000000000000000000000000000000000000000000000000000000000000000000000000000000000000000000000000000000000000000000000000000000000000000000000000000000000000000000000000000000000000000000000000000000000000000000000000000000000000000000000000000000000000000000000000000000000000000000000000000000000000000000000000000000000000000000000000000000000000000000000000000000000000000000000000000000000000000000000000000000000000000000000000000000000000000000000000000000000000000000000000000000000000000000000000000000000000000000000000000000000000000000000000000000000000000000000000000000000000000000000000000000000000000000000000000000000000000000000000000000000000000000000000000000000000000000000000000000000000000000000000000000000000000000000000000000000000000000000000000000000000000000000000000000000000000000000000000000000000000000000000000000000000000000000000000000000000000000000000000000000000000000000000000000000000000000000000000000000000000000000000000000000000000000000000000000000000000000000000000000000000000000000000000000000000000000000000000000000000000000000000000000000000000000000000000000000000000000000000000000000000000000000000000000000000000000000000000000000000000000000000000000000000000000000000000000000000000000000000000000000000000000000000000000000000000000000000000000000000000000000000000000000000000000000000000000000000000000000000000000000000000000000000000000000000000000000000000000000000000000000000000000000000000000000000000000000000000000000000000000000000000000000000000000000000000000000000000000000000000000000000000000000000000000000000000000000000000000000000000000000000000000000000000000000000000000000000000000000000000000000000000000000000000000000000000000000000000000000000000000000000000000000000000000000000000000000000000000000000000000000000000000000000000000000000000000000000000000000000000000000000000000000000000000000000000000000000000000000000000000000000000000000000000000000000000000000000000000000000000000000000000
#014980:0000001300000000
#0149a0:000000000000000000000000000000000000000000000000000000000000000000000000000000000000000000000000000000000000000000000000000000000000000000000000000000000000000000000000000000000000000000000000000000000000000000000000000000000000000000000000000000000000000000000000000000000000000000000000000000000000000000000000000000000000000000000000000000000000000000000000000000000000000000000000000000000000000000000000000000000000000000000000000000000000000000000000000000000000000000000000000000000000000000000000000000000000000000000000000000000000000000000000000000000000000000000000000000000000000000000000000000000000000000000000000000000000000000000000000000000000000000000000000000000000000000000000000000000000000000000000000000000000000000000000000000000000000000000000000000000000000000000000000000000000000000000000000000000000000000000000000000000000000000000000000000000000000000000000000000000000000000000000000000000000000000000000000000000000000000000000000000000000000000000000000000000000000000000000000000000000000000000000000000000000000000000000000000000000000000000000000000000000000000000000000000000000000000000000000000000000000000000000000000000000000000000000000000000000000000000000000000000000000000000000000000000000000000000000000000000000000000000000000000000000000000000000000000000000000000000000000000000000000000000000000000000000000000000000000000000000000000000000000000000000000000000000000000000000000000000000000000000000000000000000000000000000000000000000000000000000000000000000000000000000000000000000000000000000000000000000000000000000000000000000000000000000000000000000000000000000000000000000000000000000000000000000000000000000000000000000000000000000000000000000000000000000000000000000000000000000000000000000000000000000000000000000000000000000000000000000000000000000000000000000000000000000000000000000000000000000000000000000000000000000000000000000000000000000000000005353230000000000000000000000000000000000000000000000000000000000000000000000000000000000000000000000000000000000000000000000000000000000000000000000000000000000000000000000000000000000000000000000000000000000000000000000000000000000000000000000000000000000000000000000000000000000000000000000000000000000000000000000000000000000000000000000000000000000000000000000000000000000000000000000000000000000000000000000000000000000000000000000000000000000000000000000000000000000000000000000000000000000000000000000000000000000000000000000000000000000000000000000000000000000000000000000000000000000000000000000000000000000000000000000000000000000000000000000000000000000000000000000000000000000000000000000000000000000000000000000000000000000000000000000000000000000000000000000000000000000000000000000000000000000000000000000000000000000000000000000000000000000000000000000000000000000000000000000000000000000000000000000000000000000000000000000000000000000000000000000000000000000000000000000000000000000000000000000000000000000000000000000000000000000000000000000000000000000000000000000000000000000000000000000000000000000000000000000000000000000000000000000000000000000000000000000000000000000000000000000000000000000000000000000000000000000000000000000000000000000000000000000000000000000000000000000000000000000000000000000000000000000000000000000000000000000000000000000000000000000000000000000000000000000000000000000000000000000000000000000000000000000000000000000000000000000000000000000000000000000000000000000000000000000000000000000000000000000000000000000000000000000000000000000000000000000000000000000000000000000000000000000000000000000000000000000000000000000000000000000000000000000000000000000000000000000000000000000000000000000000000000000000000000000000000000000000000000000000000000000000000000000000000000000000000000000000000000000000000000000000000000000000000000000000000000000000000000000000000000000
#014940:0000000000130000
#014920:000000000000000000000000000000000000000000000000000000000000000000000000000000000000000000000000000000000000000000000000000000000000000000000000000000000000000000000000000000000000000000000000000000000000000000000000000000000000000000000000000000000000000000000000000000000000000000000000000000000000000000000000000000000000000000000000000000000000000000000000000000000000000000000000000000000000000000000000000000000000000000000000000000000000000000000000000000000000000000000000000000000000000000000000000000000000000000000000000000000000000000000000000000000000000000000000000000000000000000000000000000000000000000000000000000000000000000000000000000000000000000000000000000000000000000000000000000000000000000000000000000000000000000000000000000000000000000000000000000000000000000000000000000000000000000000000000000000000000000000000000000000000000000000000000000000000000000000000000000000000000000000000000000000000000000000000000000000000000000000000000000000000000000000000000000000000000000000000000000000000000000000000000000000000000000000000000000000000000000000000000000000000000000000000000000000000000000000000000000000000000000000000000000000000000000000000000000000000000000000000000000000000000000000000000000000000000000000000000000000000000000000000000000000000000000000000000000000000000000000000000000000000000000000000000000000000000000000000000000000000000000000000000000000000000000000000000000000000000000000000000000000000000000000000000000000000000000000000000000000000000000000000000000000000000000000000000000000000000000000000000000000000000000000000000000000000000000000000000000000000000000000000000000000000000000000000000000000000000000000000000000000000000000000000000000000000000000000000000000000000000000000000000000000000000000000000000000000000000000000000000000000000000000000000000000000000000000000000000000000000000000000000000000000000000000000000000000000000000000000000000000000000000000000000000000000000000000000000000000000000000000000000000000000000000000000000000000000000000000000000000000000000000000000000000000000000000000000000000000000000000000000000000000000000000000000000000000000000000000000000000000000000000000000000000000000000000000000000000000000000000000000000000000000000000000000000000000000000000000000000000000000000000000000000000000000000000000000000000000000000000000000000000000000000000000000000000000000000000000000000000000000000000000000000000000000000000000000000000000000000000000000000000000000000000000000000000000000000000000000000000000000000000000000000000000000000000000000000000000000000000000000000000000000000000000000000000000000000000000000000000000000000000000000000000000000000000000000000000000000000000000000000000000000000000000000000000000000000000000000000000000000000000000000000000000000000000000000000000000000000000000000000000000000000000000000000000000000000000000005353230000000000000000000000000000000000000000000000000000000000000000000000000000000000000000000000000000000000000000000000000000000000000000000000000000000000000000000000000000000000000000000000000000000000000000000000000000000000000000000000000000000000000000000000000000000000000000000000000000000000000000000000000000000000000000000000000000000000000000000000000000000000000000000000000000000000000000000000000000000000000000000000000000000000000000000000000000000000000000000000000000000000000000000000000000000000000000000000000000000000000000000000000000000000000000000000000000000000000000000000000000000000000000000000000000000000000000000000000000000000000000000000000000000000000000000000000000000000000000000000000000000000000000000000000000000000000000000000000000000000000000000000000000000000000000000000000000000000000000000000000000000000000000000000000000000000000000000000000000000000000000000000000000000000000000000000000000000000000000000000
#014970:0000000000000013
#014990:000000000000000000000000000000000000000000000000000000000000000000000000000000000000000000000000000000000000000000000000000000000000000000000000000000000000000000000000000000000000000000000000000000000000000000000000000000000000000000000000000000000000000000000000000000000000000000000000000000000000000000000000000000000000000000000000000000000000000000000000000000000000000000000000000000000000000000000000000000000000000000000000000000000000000000000000000000000000000000000000000000000000000000000000000000000000000000000000000000000000000000000000000000000000000000000000000000000000000000000000000000000000000000000000000000000000000000000000000000000000000000000000000000000000000000000000000000000000000000000000000000000000000000000000000000000000000000000000000000000000000000000000000000000000000000000000000000000000000000000000000000000000000000000000000000000000000000000000000000000000000000000000000000000000000000000000000000000000000000000000000000000000000000000000000000000000000000000000000000000000000000000000000000000000000000000000000000000000000000000000000000000000000000000000000000000000000000000000000000000000000000000000000000000000000000000000000000000000000000000000000000000000000000000000000000000000000000000000000000000000000000000000000000000000000000000000000000000000000000000000000000000000000000000000000000000000000000000000000000000000000000000000000000000000000000000000000000000000000000000000000000000000000000000000000000000000000000000000000000000000000000000000000000000000000000000000000000000000000000000000000000000000000000000000000000000000000000000000000000000000000000000000000000000000000000000000000000000000000000000000000000000000000000000000000000000000000000000000000000000000000000000000000000000000000000000000000000000000000000000000000000000000000000000000000000000000000000000000000000000000000000000000000000000000000000000000000000000000000000000000000000000000000000000000000000000000000000000000000000000000000000000000000000000000000000000000000000000000000000000000000000000000000000000000000000000000000000000000000000000000000000000000000000000000000000000000000000000000000000000000000000000000000000000000000000000000000000000000000000000000000000000000000000000000000000000000000000000000000000000000000000000000000000000000000000000000000000000000000000000000000000000000000000000000000000000000000000000000000000000000000000000000000000000000000000000000000000000000000000000000000000000000000000000000000000000000000000000000000000000000000000000000000000000000000000000000000000000000000000000000000000000000000000000000000000000000000000000000000000000000000000000000000000000000000000000000000000000000000000000000000000000000000000000000000000000000000000000000000000000000000000000000000000000000000000000000000000000000000000000000000000000000000000000000000000000000000000000000000000000000000000000000000000000000000000000000000000000000000000000000000000000000000000000000000000000000000000000000000000000000000000000000000000000000000000000000000000000000000000000000000000000000000000000000000000000000000000000000000000000000000000000000000000000000000000000000000000000000000000000000000000000000000000000000000000000000000000000000000000000000000000000000000000000000000000000000000000000000000000000000000000000000000000000000000000000000000000000000000000000000000000000000000000000000000000000000000000000000000000000000000000000000000000000000000000000000000000000000000000000000000000000000000000000000000000000000000000000000000000000000000000000000000000000000000000000000000000000000000000000000000000000000000000000000000000000000000000000000000000000000000000000000000000000000000000000000000000000000000000000000000000000000000000000000000000000000000000000000000000000000000000000000000000000000000000000000000000000000000000005353
#015990:23
#015940:0000000000000013
#015920:000000000000000000000000000000000000000000000000000000000000000000000000000000000000000000000000000000000000000000000000000000000000000000000000000000000000000000000000000000000000000000000000000000000000000000000000000000000000000000000000000000000000000000000000000000000000000000000000000000000000000000000000000000000000000000000000000000000000000000000000000000000000000000000000000000000000000000000000000000000000000000000000000000000000000000000000000000000000000000000000000000000000000000000000000000000000000000000000000000000000000000000000000000000000000000000000000000000000000000000000000000000000000000000000000000000000000000000000000000000000000000000000000000000000000000000000000000000000000000000000000000000000000000000000000000000000000000000000000000000000000000000000000000000000000000000000000000000000000000000000000000000000000000000000000000000000000000000000000000000000000000000000000000000000000000000000000000000000000000000000000000000000000000000000000000000000000000000000000000000000000000000000000000000000000000000000000000000000000000000000000000000000000000000000000000000000000000000000000000000000000000000000000000000000000000000000000000000000000000000000000000000000000000000000000000000000000000000000000000000000000000000000000000000000000000000000000000000000000000000000000000000000000000000000000000000000000000000000000000000000000000000000000000000000000000000000000000000000000000000000000000000000000000000000000000000000000000000000000000000000000000000000000000000000000000000000000000000000000000000000000000000000000000000000000000000000000000000000000000000000000000000000000000000000000000000000000000000000000000000000000000000000000000000000000000000000000000000000000000000000000000000000000000000000000000000000000000000000000000000000000000000000000000000000000000000000000000000000000000000000000000000000000000000000000000000000000000000000000000000000000000000000000000000000000000000000000000000000000000000000000000000000000000000000000000000000000000000000000000000000000000000000000000000000000000000000000000000000000000000000000000000000000000000000000000000000000000000000000000000000000000000000000000000000000000000000000000000000000000000000000000000000000000000000000000000000000000000000000000000000000000000000000000000000000000000000000000000000000000000000000000000000000000000000000000000000000000000000000000000000000000000000000000000000000000000000000000000000000000000000000000000000000000000000000000000000000000000000000000000000000000000000000000000000000000000000000000000000000000000000000000000000000000000000000000000000000000000000000000000000000000000000000000000000000000000000000000000000000000000000000000000000000000000000000000000000000000000000000000000000000000000000000000000000000000000000000000000000000000000000000000000000000000000000000000000000000000000000000000000000000000000000000000000000000000000000000000000000000000000000000000000000000000000000000000000000000000000000000000000000000000000000000000000000000000000000000000000000000000000000000000000000000000000000000000000000000000000000000000000000000000000000000000000000000000000000000000000000000000000000000000000000000000000000000000000000000000000000000000000000000000000000000000000000000000000000000000000000000000000000000000000000000000000000000000000000000000000000000000000000000000000000000000000000000000000000000000000000000000000000000000000000000000000000000000000000000000000000000000000000000000000000000000000000000000000000000000000000000000000000000000000000000000000000000000000000000000000000000000000000000000000000000000000000000000000000000000000000000000000000000000000000000000000000000000000000000000000000000000000000000000000000000000000000000000000000000000000000000000000000000000000000000000000000000000000000000000000000000000005353
#016920:23
#016980:0013000000000000
#0169a0:000000000000000000000000000000000000000000000000000000000000000000000000000000000000000000000000000000000000000000000000000000000000000000000000000000000000000000000000000000000000000000000000000000000000000000000000000000000000000000000000000000000000000000000000000000000000000000000000000000000000000000000000000000000000000000000000000000000000000000000000000000000000000000000000000000000000000000000000000000000000000000000000000000000000000000000000000000000000000000000000000000000000000000000000000000000000000000000000000000000000000000000000000000000000000000000000000000000000000000000000000000000000000000000000000000000000000000000000000000000000000000000000000000000000000000000000000000000000000000000000000000000000000000000000000000000000000000000000000000000000000000000000000000000000000000000000000000000000000000000000000000000000000000000000000000000000000000000000000000000000000000000000000000000000000000000000000000000000000000005353230000000000000000000000000000000000000000000000000000000000000000000000000000000000000000000000000000000000000000000000000000000000000000000000000000000000000000000000000000000000000000000000000000000000000000000000000000000000000000000000000000000000000000000000000000000000000000000000000000000000000000000000000000000000000000000000000000000000000000000000000000000000000000000000000000000000000000000000000000000000000000000000000000000000000000000000000000000000000000000000000000000000000000000000000000000000000000000000000000000000000000000000000000000000000000000000000000000000000000000000000000000000000000000000000000000000000000000000000000000000000000000000000000000000000000000000000000000000000000000000000000000000000000000000000000000000000000000000000000000000000000000000000000000000000000000000000000000000000000000000000000000000000000000000000000000000000000000000000000000000000000000000000000000000000000000000000000000000000000000000000000000000000000000000000000000000000000000000000000000000000000000000000000000000000000000000000000000000000000000000000000000000000000000000000000000000000000000000000000000000000000000000000000000000000000000000000000000000000000000000000000000000000000000000000000000000000000000000000000000000000000000000000000000000000000000000000000000000000000000000000000000000000000000000000000000000000000000000000000000000000000000000000000000000000000000000000000000000000000000000000000000000000000000000000000000000000000000000000000000000000000000000000000000000000000000000000000000000000000000000000000000000000000000000000000000000000000000000000000000000000000000000000000000000000000000000000000000000000000000000000000000000000000000000000000000000000000000000000000000000000000000000000000000000000000000000000000000000000000000000000000000000000000000000000000000000000000000000000000000000000000000000000000000000000000000000000000000000000000000000000000000000000000000000000000000000000000000000000000000000000000000000000000000000000000000000000000000000000000000000000000000000000000000000000000000000000000000000000000000000000000000000000000000000000000000000000000000000000000000000000000000000000000000000000000000000000000000000000000000000000000000000000000000000000000000000000000000000000000000000000000000000000000000000000000000000000000000000000000000000000000000000000000000000000000000000000000000000000000000000000000000000000000000000000000000000000000000000000000000000000000000000000000000000000000000000000000000000000000000000000000000000000000000000000000000000000000000000000000000000000000000000000000000000000000000000000000000000000000000000000000000000000000000000000000000000000000000000000000000000000000000000000000000000000000000000000000000000000000000000000000000000000000000000000000000000000000000000000000000000000000000000000000000000000000000000000000000000000000000000
#016950:0000001300000000
#016930:000000000000000000000000000000000000000000000000000000000000000000000000000000000000000000000000000000000000000000000000000000000000000000000000000000000000000000000000000000000000000000000000000000000000000000000000000000000000000000000000000000000000000000000000000000000000000000000000000000000000000000000000000000000000000000000000000000000000000000000000000000000000000000000000000000000000000000000000000000000000000000000000000000000000000000000000000000000000000000000000000000000000000000000000000000000000000000000000000000000000000000000000000000000000000000000000000000000000000000000000000000000000000000000000000000000000000000000000000000000000000000000000000000000000000000000000000000000000000000000000000000000000000000000000000000000000000000000000000000000000000000000000000000000000000000000000000000000000000000000000000000000000000000000000000000000000000000000000000000000000000000000000000000000000000000000000000000000000000000000000000000000000000000000000000000000000000000000000000000000000000000000000000000000000000000000000000000000000000000000000000000000000000000000000000000000000000000000000000000000000000000000000000000000000000000000000000000000000000000000000000000000000000000000000000000000000000000000000000000000000000000000000000000000000000000000000000000000000000000000000000000000000000000000000000000000000000000000000000000000000000000000000000000000000000000000000000000000000000000000000000000000000000000000000000000000000000000000000000000000000000000000000000000000000000000000000000000000000000000000000000000000000000000000000000000000000000000000000000000000000000000000000000000000000000000000000000000000000000000000000000000000000000000000000000000000000000000000000000000000000000000000000000000000000000000000000000000000000000000000000000000000000000000000000000000000000000000000000000000000000000000000000000000000000000000000000000000000000000000005353230000000000000000000000000000000000000000000000000000000000000000000000000000000000000000000000000000000000000000000000000000000000000000000000000000000000000000000000000000000000000000000000000000000000000000000000000000000000000000000000000000000000000000000000000000000000000000000000000000000000000000000000000000000000000000000000000000000000000000000000000000000000000000000000000000000000000000000000000000000000000000000000000000000000000000000000000000000000000000000000000000000000000000000000000000000000000000000000000000000000000000000000000000000000000000000000000000000000000000000000000000000000000000000000000000000000000000000000000000000000000000000000000000000000000000000000000000000000000000000000000000000000000000000000000000000000000000000000000000000000000000000000000000000000000000000000000000000000000000000000000000000000000000000000000000000000000000000000000000000000000000000000000000000000000000000000000000000000000000000000000000000000000000000000000000000000000000000000000000000000000000000000000000000000000000000000000000000000000000000000000000000000000000000000000000000000000000000000000000000000000000000000000000000000000000000000000000000000000000000000000000000000000000000000000000000000000000000000000000000000000000000000000000000000000000000000000000000000000000000000000000000000000000000000000000000000000000000000000000000000000000000000000000000000000000000000000000000000000000000000000000000000000000000000000000000000000000000000000000000000000000000000000000000000000000000000000000000000000000000000000000000000000000000000000000000000000000000000000000000000000000000000000000000000000000000000000000000000000000000000000000000000000000000000000000000000000000000000000000000000000000000000000000000000000000000000000000000000000000000000000000000000000000000000000000000000000000000000000000000000000000000000000000000000000000000000000000000000000000000000
#016990:0000000000130000
#0169b0:000000000000000000000000000000000000000000000000000000000000000000000000000000000000000000000000000000000000000000000000000000000000000000000000000000000000000000000000000000000000000000000000000000000000000000000000000000000000000000000000000000000000000000000000000000000000000000000000000000000000000000000000000000000000000000000000000000000000000000000000000000000000000000000000000000000000000000000000000000000000000000000000000000000000000000000000000000000000000000000000000000000000000000000000000000000000000000000000000000000000000000000000000000000000000000000000000000000000000000000000000000000000000000000000000000000000000000000000000000000000000000000000000000000000000000000000000000000000000000000000000000000000000000000000000000000000000000000000000000000000000000000000000000000000000000000000000000000000000000000000000000000000000000000000000000000000000000000000000000000000000000000000000000000000000000000000000000000000000000000000000000000000000000000000000000000000000000000000000000000000000000000000000000000000000000000000000000000000000000000000000000000000000000000000000000000000000000000000000000000000000000000000000000000000000000000000000000000000000000000000000000000000000000000000000000000000000000000000000000000000000000000000000000000000000000000000000000000000000000000000000000000000000000000000000000000000000000000000000000000000000000000000000000000000000000000000000000000000000000000000000000000000000000000000000000000000000000000000000000000000000000000000000000000000000000000000000000000000000000000000000000000000000000000000000000000000000000000000000000000000000000000000000000000000000000000000000000000000000000000000000000000000000000000000000000000000000000000000000000000000000000000000000000000000000000000000000000000000000000000000000000000000000000000000000000000000000000000000000000000000000000000000000000000000000000000000000000000000000000000000000000000000000000000000000000000000000000000000000000000000000000000000000000000000000000000000000000000000000000000000000000000000000000000000000000000000000000000000000000000000000000000000000000000000000000000000000000000000000000000000000000000000000000000000000000000000000000000000000000000000000000000000000000000000000000000000000000000000000000000000000000000000000000000000000000000000000000000000000000000000000000000000000000000000000000000000000000000000000000000000000000000000000000000000000000000000000000000000000000000000000000000000000000000000000000000000000000000000000000000000000000000000000000000000000000000000000000000000000000000000000000000000000000000000000000000000000000000000000000000000000000000000000000000000000000000000000000000000000000000000000000000000000000000000000000000000000000000000000000000000000000000000000000000000000000000000000000000000000000000000000000000000000000000000000000000000000000000000000000005353230000000000000000000000000000000000000000000000000000000000000000000000000000000000000000000000000000000000000000000000000000000000000000000000000000000000000000000000000000000000000000000000000000000000000000000000000000000000000000000000000000000000000000000000000000000000000000000000000000000000000000000000000000000000000000000000000000000000000000000000000000000000000000000000000000000000000000000000000000000000000000000000000000000000000000000000000000000000000000000000000000000000000000000000000000000000000000000000000000000000000000000000000000000000000000000000000000000000000000000000000000000000000000000000000000000000000000000000000000000000000000000000000000000000000000000000000000000000000000000000000000000000000000000000000000000000000000000000000000000000000000000000000000000000000000000000000000000000000000000000000000000000000000000000000000000000000000000000000000000000000000000000000000000000000000000000000000000000000000000000
#016960:0000000000000013
#016940:000000000000000000000000000000000000000000000000000000000000000000000000000000000000000000000000000000000000000000000000000000000000000000000000000000000000000000000000000000000000000000000000000000000000000000000000000000000000000000000000000000000000000000000000000000000000000000000000000000000000000000000000000000000000000000000000000000000000000000000000000000000000000000000000000000000000000000000000000000000000000000000000000000000000000000000000000000000000000000000000000000000000000000000000000000000000000000000000000000000000000000000000000000000000000000000000000000000000000000000000000000000000000000000000000000000000000000000000000000000000000000000000000000000000000000000000000000000000000000000000000000000000000000000000000000000000000000000000000000000000000000000000000000000000000000000000000000000000000000000000000000000000000000000000000000000000000000000000000000000000000000000000000000000000000000000000000000000000000000000000000000000000000000000000000000000000000000000000000000000000000000000000000000000000000000000000000000000000000000000000000000000000000000000000000000000000000000000000000000000000000000000000000000000000000000000000000000000000000000000000000000000000000000000000000000000000000000000000000000000000000000000000000000000000000000000000000000000000000000000000000000000000000000000000000000000000000000000000000000000000000000000000000000000000000000000000000000000000000000000000000000000000000000000000000000000000000000000000000000000000000000000000000000000000000000000000000000000000000000000000000000000000000000000000000000000000000000000000000000000000000000000000000000000000000000000000000000000000000000000000000000000000000000000000000000000000000000000000000000000000000000000000000000000000000000000000000000000000000000000000000000000000000000000000000000000000000000000000000000000000000000000000000000000000000000000000000000000000000000000000000000000000000000000000000000000000000000000000000000000000000000000000000000000000000000000000000000000000000000000000000000000000000000000000000000000000000000000000000000000000000000000000000000000000000000000000000000000000000000000000000000000000000000000000000000000000000000000000000000000000000000000000000000000000000000000000000000000000000000000000000000000000000000000000000000000000000000000000000000000000000000000000000000000000000000000000000000000000000000000000000000000000000000000000000000000000000000000000000000000000000000000000000000000000000000000000000000000000000000000000000000000000000000000000000000000000000000000000000000000000000000000000000000000000000000000000000000000000000000000000000000000000000000000000000000000000000000000000000000000000000000000000000000000000000000000000000000000000000000000000000000000000000000000000000000000000000000000000000000000000000000000000000000000000000000000000000000000000000000000000000000000000000000000000000000000000000000000000000000000000000000000000000000000000000000000000000000000000000000000000000000000000000000000000000000000000000000000000000000000000000000000000000000000000000000000000000000000000000000000000000000000000000000000000000000000000000000000000000000000000000000000000000000000000000000000000000000000000000000000000000000000000000000000000000000000000000000000000000000000000000000000000000000000000000000000000000000000000000000000000000000000000000000000000000000000000000000000000000000000000000000000000000000000000000000000000000000000000000000000000000000000000000000000000000000000000000000000000000000000000000000000000000000000000000000000000000000000000000000000000000000000000000000000000000000000000000000000000000000000000000000000000000000000000000000000000000000000000000000000000000000000000000000000000000000000000000000000000000000000000000000000000000000000000000000000000000000000000000000005353
#017940:23
#017980:0000000000000013
#0179a0:000000000000000000000000000000000000000000000000000000000000000000000000000000000000000000000000000000000000000000000000000000000000000000000000000000000000000000000000000000000000000000000000000000000000000000000000000000000000000000000000000000000000000000000000000000000000000000000000000000000000000000000000000000000000000000000000000000000000000000000000000000000000000000000000000000000000000000000000000000000000000000000000000000000000000000000000000000000000000000000000000000000000000000000000000000000000000000000000000000000000000000000000000000000000000000000000000000000000000000000000000000000000000000000000000000000000000000000000000000000000000000000000000000000000000000000000000000000000000000000000000000000000000000000000000000000000000000000000000000000000000000000000000000000000000000000000000000000000000000000000000000000000000000000000000000000000000000000000000000000000000000000000000000000000000000000000000000000000000000000000000000000000000000000000000000000000000000000000000000000000000000000000000000000000000000000000000000000000000000000000000000000000000000000000000000000000000000000000000000000000000000000000000000000000000000000000000000000000000000000000000000000000000000000000000000000000000000000000000000000000000000000000000000000000000000000000000000000000000000000000000000000000000000000000000000000000000000000000000000000000000000000000000000000000000000000000000000000000000000000000000000000000000000000000000000000000000000000000000000000000000000000000000000000000000000000000000000000000000000000000000000000000000000000000000000000000000000000000000000000000000000000000000000000000000000000000000000000000000000000000000000000000000000000000000000000000000000000000000000000000000000000000000000000000000000000000000000000000000000000000000000000000000000000000000000000000000000000000000000000000000000000000000000000000000000000000000000000000000000000000000000000000000000000000000000000000000000000000000000000000000000000000000000000000000000000000000000000000000000000000000000000000000000000000000000000000000000000000000000000000000000000000000000000000000000000000000000000000000000000000000000000000000000000000000000000000000000000000000000000000000000000000000000000000000000000000000000000000000000000000000000000000000000000000000000000000000000000000000000000000000000000000000000000000000000000000000000000000000000000000000000000000000000000000000000000000000000000000000000000000000000000000000000000000000000000000000000000000000000000000000000000000000000000000000000000000000000000000000000000000000000000000000000000000000000000000000000000000000000000000000000000000000000000000000000000000000000000000000000000000000000000000000000000000000000000000000000000000000000000000000000000000000000000000000000000000000000000000000000000000000000000000000000000000000000000000000000000000000000000000000000000000000000000000000000000000000000000000000000000000000000000000000000000000000000000000000000000000000000000000000000000000000000000000000000000000000000000000000000000000000000000000000000000000000000000000000000000000000000000000000000000000000000000000000000000000000000000000000000000000000000000000000000000000000000000000000000000000000000000000000000000000000000000000000000000000000000000000000000000000000000000000000000000000000000000000000000000000000000000000000000000000000000000000000000000000000000000000000000000000000000000000000000000000000000000000000000000000000000000000000000000000000000000000000000000000000000000000000000000000000000000000000000000000000000000000000000000000000000000000000000000000000000000000000000000000000000000000000000000000000000000000000000000000000000000000000000000000000000000000000000000000000000000000000000000000000000000000000000000000000000000000000000000000000000000000000000000000000000005353
#0189a0:23
