This file was generated by Ched 2.7.0.0.
#TITLE ""
#ARTIST ""
#DESIGNER ""
#DIFFICULTY 0
#PLAYLEVEL
#SONGID ""
#WAVE ""
#WAVEOFFSET 0
#JACKET ""
#REQUEST "ticks_per_beat 480"
#00002: 4
#BPM01: 137.5
#00008: 01
#TIL00: ""
#VOLUME: ""
#HISPEED 00
#MEASUREHS 00
#00212:14
#00218:0014
#0041a:14
#00414:0014
#00612:14
#0061a:0014
#00610:41
#00714:14
#00718:0014
#01014:14
#01018:0014
#01112:14
#0111a:0014
#01412:14
#0141a:0014
#01410:41
#01514:1414
#01518:00140000
#0161a:14
#01612:0014
#01718:1414
#01714:00140000
#02214:14
#02218:0014
#0221f:11
#02312:14141400
#02418:14
#02414:0014
#0251a:14141400
#02612:14
#0261a:0014
#02714:14
#02713:00140000
#02712:0014
#0281a:14
#02812:0014
#02918:14
#02919:00140000
#0291a:0014
#03212:00160016
#03218:2616
#0321f:21
#03210:0041
#03412:1616
#03418:00160016
#0361a:14
#03618:00140000
#03712:14
#03714:00140000
#04018:00160016
#04012:2616
#04218:1616
#04212:00160016
#04412:14
#04414:00140000
#0451a:14
#04518:00140000
#04614:1414
#04618:00140014
#0481a:14
#04818:00140000
#04912:14
#04914:00140000
#05114:0014
#05112:24
#0511a:24
#05110:41
#0521a:1414
#05214:00140000
#05312:14
#05318:0014
#05412:1414
#05418:00140000
#05815:0014
#05812:24
#0661a:14
#06616:00140000
#06614:00000014
#06612:0014
#06718:0014
#06710:41
#06814:14
#0681a:0014
#0611a:14
#06114:00240000
#06118:0024
#06212:14
#06218:00140000
#06214:0014
#0621a:00000014
#06312:14
#06318:00240000
#06314:0024
#0651a:14
#06514:00240000
#06518:0024
#0641a:14
#06416:00140014
#06412:0014
#0601a:14
#06014:00140000
#06018:0014
#06012:00000014
#05714:1414
#05718:00140014
#07215:0014
#05019:24
#05013:24
#07112:24
#05918:00240000
#05914:0024
#05910:41
#0551a:24
#07412:00000063000000000000000000000000
#00652:14
#01452:14
#0165a:14
#02254:14
#02458:14
#02652:14
#0285a:14
#03154:14
#03258:16
#0365a:64
#03658:00240000
#03752:54
#03754:00240000
#03952:0014
#0395a:0014
#04452:54
#04454:00240000
#0455a:64
#04558:00240000
#0485a:64
#04858:00240000
#04952:54
#04954:00240000
#05152:14
#0515a:14
#05855:0024
#05852:64
#06654:00000024
#06652:0054
#06752:14
#06952:0014
#0705a:0014
#05958:00140000
#05954:0014
#06154:00140000
#06158:0014
#06358:00140000
#06354:0014
#06554:00140000
#06558:0014
#07152:64
#07255:0024
#003340:1424
#005380:1424
#008320:14
#008340:0024
#0093a0:14
#009380:0024
#012340:14
#012320:0024
#013380:14
#0133a0:0024
#018320:14
#018340:0034
#019320:3424
#0203a0:14
#020380:0034
#0213a0:3424
#030340:1434
#031340:24
#033380:1626
#035320:1626
#0363a0:1424
#036380:00540000
#037320:1424
#037340:00540000
#038320:14
#038340:0034
#039320:3424
#0383a1:14
#038381:0034
#0393a1:3424
#041321:1626
#043381:1626
#044321:1424
#044341:00540000
#0453a1:1424
#045381:00540000
#047341:14
#047321:0024
#0483a1:1424
#048381:00540000
#049321:1424
#049341:00540000
#0553a1:14
#055381:0034
#0563a1:34
#056381:0024
#058321:14
#058351:0054
#059321:24
#066321:0014
#066341:00000034
#067321:24
#069321:1424
#0703a1:1424
#071321:14
#072351:0054
#074321:00000023000000000000000000000000
