This file was generated by Ched 2.7.0.0.
#TITLE ""
#ARTIST ""
#DESIGNER ""
#DIFFICULTY 0
#PLAYLEVEL
#SONGID ""
#WAVE ""
#WAVEOFFSET 0
#JACKET ""
#REQUEST "ticks_per_beat 480"
#00002: 4
#BPM01: 167
#00008: 01
#TIL00: "81'960:1.0, 81'958:10000.0"
#VOLUME: ""
#HISPEED 00
#MEASUREHS 00
#0021a:14
#00314:14
#00414:14
#00518:14
#00618:14
#00712:14
#00812:14
#01014:14
#01118:14
#01212:14
#0131a:14
#01414:14
#01518:14
#01612:14
#02512:0016
#02518:26
#02510:41
#02618:16
#02712:16
#02718:0016
#02918:16
#02912:0016
#03018:16
#03112:16
#03118:0016
#03212:16
#03312:0016
#03318:26
#03310:41
#03518:16
#03512:0016
#04918:2616
#0491f:11
#05018:16
#05112:1616
#05318:1616
#05418:16
#05512:1616
#05612:16
#0731a:14
#07310:41
#07418:14
#07514:14
#07612:14
#0771a:14
#07818:14
#07914:14
#08012:14
#02812:16
#03718:0016
#03712:16
#03912:16
#03918:0016
#03812:16
#03818:0016
#03418:16
#03412:0016
#05212:16
#05718:2616
#0571f:00210000
#05918:16
#05912:0016
#06112:1616
#06312:16
#06318:0016
#06218:1616
#05812:1616
#05810:41
#06512:0016
#06518:26
#06718:16
#06712:0016
#06918:0016
#06912:16
#07112:16
#07118:0016
#07012:16
#07018:0016
#06618:16
#06612:0016
#0011a:24
#0091a:24
#00910:41
#01710:41
#017380:14
#018380:24
#019340:14
#020340:24
#0213a0:14
#0223a0:24
#023320:14
#024320:24
#036380:1626
#040320:1626
#041380:14
#042380:24
#043340:14
#044340:24
#0453a0:14
#0463a0:24
#047320:14
#048320:24
#060380:1626
#064320:1626
#068380:1626
#072320:1626
#0819d0:000000000000000000000000000000000000000000000000000000000000000000000000000000000000000000000000000000000000000000000000000000000000000000000000000000000000000000000000000000000000000000000000000000000000000000000000000000000000000000000000000000000000000000000000000000000000000000000000000000000000000000000000000000000000000000000000000000000000000000000000000000000000000000000000000000000000000000000000000000000000000000000000000000000000000000000000000000000000000000000000000000000000000000000000000000000000000000000000000000000000000000000000000000000000000000000000000000000000000000000000000000000000000000000000000000000000000000000000000000000000000000000000000000000000000000000000000000000000000000000000000000000000000000000000000000000000000000000000000000000000000000000000000000000000000000000000000000000000000000000000000000000000000000000000000000000000000000000000000000000000000000000000000000000000000000000000000000000000000000000000000000000000000000000000000000000000000000000000000000000000000000000000000000000000000000000000000000000000000000000000000000000000000000000000000000000000000000000000000000000000000000000000000000000000000000000000000000000000000000000000000000000000000000000000000000000000000000000000000000000000000000000000000000000000000000000000000000000000000000000000000000000000000000000000000000000000000000000000000000000000000000000000000000000000000000000000000000000000000000000000000000000000000000000000000000000000000000000000000000000000000000000000000000000000000000000000000000000000000000000000000000000000000000000000000000000000000000000000000000000000000000000000000000000000000000000000000000000000000000000000000000000000000000000000000000000000000000000000000000000000000000000000000000000000000000000000000000000000000000000000000000000000000000000000000000000000000000000000000000000000000000000000000000000000000000000000000000000000000000000000112100000000000000000000000000000000000000000000000000000000000000000000000000000000000000000000000000000000000000000000000000000000000000000000000000000000000000000000000000000000000000000000000000000000000000000000000000000000000000000000000000000000000000000000000000000000000000000000000000000000000000000000000000000000000000000000000000000000000000000000000000000000000000000000000000000000000000000000000000000000000000000000000000000000000000000000000000000000000000000000000000000000000000000000000000000000000000000000000000000000000000000000000000000000000000000000000000000000000000000000000000000000000000000000000000000000000000000000000000000000000000000000000000000000000000000000000000000000000000000000000000000000000000000000000000000000000000000000000000000000000000000000000000000000000000000000000000000000000000000000000000000000000000000000000000000000000000000000000000000000000000000000000000000000000000000000000000000000000000000000000000000000000000000000000000000000000000000000000000000000000000000000000000000000000000000000000000000000000000000000000000000000000000000000000000000000000000000000000000000000000000000000000000000000000000000000000000000000000000000000000000000000000000000000000000000000000000000000000000000000000000000000000000000000000000000000000000000000000000000000000000000000000000000000000000000000000000000000000000000000000000000000000000000000000000000000000000000000000000000000000000000000000000000000000000000000000000000000000000000000000000000000000000000000000000000000000000000000000000000000000000000000000000000000000000000000000000000000000000000000000000000000000000000000000000000000000000000000000000000000000000000000000000000000000000000000000000000000000000000000000000000000000000000000000000000000000000000000000000000000000000000000000000000000000000000000000000000000000000000000000000000000000000000000000000000000000000000000000000000000
