This file was generated by Ched 2.7.0.0.
#TITLE ""
#ARTIST ""
#DESIGNER ""
#DIFFICULTY 0
#PLAYLEVEL
#SONGID ""
#WAVE ""
#WAVEOFFSET 0
#JACKET ""
#REQUEST "ticks_per_beat 480"
#00002: 4
#BPM01: 167
#00008: 01
#TIL00: "81'960:1.0, 81'958:10000.0"
#VOLUME: ""
#HISPEED 00
#MEASUREHS 00
#03314:00140014
#0331a:2414
#03310:41
#05714:00140000
#05718:0014
#05712:00000014
#0571a:24
#0571f:00210000
#05814:00140000
#05812:00000014
#0581a:14
#05818:0014
#05810:41
#05914:00140014
#0591a:1414
#06312:1414
#06318:00140014
#07319:1515
#07310:41
#07512:1515
#00518:14
#00514:0014
#0061a:14
#00714:14
#00718:0014
#00812:14
#00914:0014
#0091a:14
#00910:41
#01112:14
#01118:0014
#01318:14
#01314:0014
#01514:14
#01518:0014
#01814:1414
#01818:00140014
#02018:1414
#02014:00140014
#02214:1414
#02218:00140014
#0251a:24140000
#02514:0014
#02510:41
#02618:24140000
#02612:0014
#0271a:24140000
#02714:0014
#02912:24140000
#02918:0014
#03014:24140000
#0301a:0014
#03112:24140000
#03118:0014
#03418:14
#03412:00140000
#03514:1414
#0351a:00140014
#03718:1414
#03712:00140014
#0381a:14
#03814:00140000
#03912:1414
#03918:00140014
#04712:14
#04718:0014
#0491a:24140000
#04914:0014
#0491f:11
#05018:24140000
#05012:0014
#0511a:24140000
#05114:0014
#05218:14
#0521a:00140000
#05312:24140000
#05318:0014
#05414:24140000
#0541a:0014
#05512:24140000
#05518:0014
#05614:14
#05612:00140000
#0601a:14
#06018:00343400
#06118:00140000
#06114:0014
#0611a:00000014
#06112:14
#06212:14
#06218:00140000
#06214:0014
#0621a:00000014
#06514:00140000
#06518:0014
#06512:00000014
#0651a:24
#0661a:14
#06612:00140000
#06618:0014
#06614:00000014
#0671a:14
#06714:00140000
#06718:0014
#06712:00000014
#06818:1414
#0681a:00140000
#06918:00140014
#06914:0014
#06912:14
#07012:14
#0701a:00140014
#07014:0014
#07112:14
#07118:00140000
#07114:0014
#0711a:00000014
#07214:14
#07412:14
#07418:00140000
#07414:0014
#0741a:00000014
#0771a:1414
#0761a:14
#07614:00140000
#07618:0014
#07612:00000014
#07912:1414
#07812:14
#07818:00140000
#07814:0014
#0781a:00000014
#08018:14
#0801a:0054
#00114:0014
#0011a:24
#00218:14
#00312:14
#00318:0014
#00414:14
#02818:14
#03214:14
#03614:14
#04012:14
#06412:14
#06414:00343400
#01612:24
#0241a:24
#02416:00240000
#02412:0024
#04814:24
#04813:00340000
#0141a:24
#01212:24
#0101a:24
#01710:41
#04852:0014
#04854:54
#05258:54
#0525a:00240000
#05654:64
#05652:00240000
#0605a:54
#06858:5454
#0685a:00540000
#07254:64
#07252:0014
#08058:54
#02858:54
#03254:64
#03654:54
#03652:0014
#04052:64
#04054:0014
#0575a:14
#06452:64
#0655a:14
#06952:14
#06152:14
#0103a0:1424
#012320:1424
#0143a0:1424
#016320:1424
#017380:14
#0173a0:0024
#019340:14
#019320:0024
#021380:14
#0213a0:0024
#023340:14
#023320:0024
#028380:14
#0283a0:0024
#032340:14
#032320:0024
#034380:00001424
#036340:14
#036320:0024
#0383a0:00001424
#040320:14
#040340:0024
#041380:14
#0413a0:0034
#042380:34
#0423a0:0024
#043340:14
#043320:0034
#044340:34
#044320:0024
#0453a0:14
#045380:0034
#0463a0:34
#046380:0024
#048340:14
#048330:00340000
#048320:0024
#052380:1424
#0523a0:00540000
#056340:1424
#056320:00540000
#0603a0:14
#060380:00343424
#064320:14
#064340:00343424
#068380:1434
#0683a0:00340024
#072340:14
#072320:0024
#080380:14
#0803a0:0024
#0819d0:000000000000000000000000000000000000000000000000000000000000000000000000000000000000000000000000000000000000000000000000000000000000000000000000000000000000000000000000000000000000000000000000000000000000000000000000000000000000000000000000000000000000000000000000000000000000000000000000000000000000000000000000000000000000000000000000000000000000000000000000000000000000000000000000000000000000000000000000000000000000000000000000000000000000000000000000000000000000000000000000000000000000000000000000000000000000000000000000000000000000000000000000000000000000000000000000000000000000000000000000000000000000000000000000000000000000000000000000000000000000000000000000000000000000000000000000000000000000000000000000000000000000000000000000000000000000000000000000000000000000000000000000000000000000000000000000000000000000000000000000000000000000000000000000000000000000000000000000000000000000000000000000000000000000000000000000000000000000000000000000000000000000000000000000000000000000000000000000000000000000000000000000000000000000000000000000000000000000000000000000000000000000000000000000000000000000000000000000000000000000000000000000000000000000000000000000000000000000000000000000000000000000000000000000000000000000000000000000000000000000000000000000000000000000000000000000000000000000000000000000000000000000000000000000000000000000000000000000000000000000000000000000000000000000000000000000000000000000000000000000000000000000000000000000000000000000000000000000000000000000000000000000000000000000000000000000000000000000000000000000000000000000000000000000000000000000000000000000000000000000000000000000000000000000000000000000000000000000000000000000000000000000000000000000000000000000000000000000000000000000000000000000000000000000000000000000000000000000000000000000000000000000000000000000000000000000000000000000000000000000000000000000000000000000000000000000000000000000000000000000112100000000000000000000000000000000000000000000000000000000000000000000000000000000000000000000000000000000000000000000000000000000000000000000000000000000000000000000000000000000000000000000000000000000000000000000000000000000000000000000000000000000000000000000000000000000000000000000000000000000000000000000000000000000000000000000000000000000000000000000000000000000000000000000000000000000000000000000000000000000000000000000000000000000000000000000000000000000000000000000000000000000000000000000000000000000000000000000000000000000000000000000000000000000000000000000000000000000000000000000000000000000000000000000000000000000000000000000000000000000000000000000000000000000000000000000000000000000000000000000000000000000000000000000000000000000000000000000000000000000000000000000000000000000000000000000000000000000000000000000000000000000000000000000000000000000000000000000000000000000000000000000000000000000000000000000000000000000000000000000000000000000000000000000000000000000000000000000000000000000000000000000000000000000000000000000000000000000000000000000000000000000000000000000000000000000000000000000000000000000000000000000000000000000000000000000000000000000000000000000000000000000000000000000000000000000000000000000000000000000000000000000000000000000000000000000000000000000000000000000000000000000000000000000000000000000000000000000000000000000000000000000000000000000000000000000000000000000000000000000000000000000000000000000000000000000000000000000000000000000000000000000000000000000000000000000000000000000000000000000000000000000000000000000000000000000000000000000000000000000000000000000000000000000000000000000000000000000000000000000000000000000000000000000000000000000000000000000000000000000000000000000000000000000000000000000000000000000000000000000000000000000000000000000000000000000000000000000000000000000000000000000000000000000000000000000000000000000000000000000
