This file was generated by Ched 2.7.0.0.
#TITLE ""
#ARTIST ""
#DESIGNER ""
#DIFFICULTY 0
#PLAYLEVEL
#SONGID ""
#WAVE ""
#WAVEOFFSET 0
#JACKET ""
#REQUEST "ticks_per_beat 480"
#00002: 4
#BPM01: 129
#00008: 01
#TIL00: ""
#VOLUME: ""
#HISPEED 00
#MEASUREHS 00
#0011a:14
#00214:14
#00318:14
#00412:14
#0051a:14
#00614:14
#00718:14
#00710:41
#00812:14
#0091a:14
#01018:0016
#01012:26
#01112:16
#01118:0016
#01418:0016
#01412:26
#01410:41
#01512:16
#01518:0016
#01812:14
#01918:14
#02014:14
#0211a:14
#02110:41
#03018:0016
#03012:26
#03212:0016
#03218:26
#03912:14
#03918:0014
#04012:14
#0411a:14
#04114:0014
#0421a:14
#04512:0016
#04518:26
#0451f:21
#04618:16
#04612:0016
#04610:41
#04912:0016
#04918:26
#05018:16
#05012:0016
#05312:0016
#05318:26
#05512:16
#05518:0016
#05612:16
#05618:0016
#05718:0016
#05712:26
#05918:16
#05912:0016
#06018:16
#06012:0016
#0381f:00110000
#02810:41
#03410:41
#012320:1626
#013380:1626
#016320:1626
#017380:1626
#022320:14
#023320:24
#024380:14
#025380:24
#026340:14
#027340:24
#0283a0:14
#0293a0:24
#031320:1626
#033380:1626
#034340:14
#035320:24
#036380:14
#0373a0:34
#038380:24
#043340:14
#044340:24
#047380:1626
#048320:1626
#051380:1626
#052320:1626
#054380:1626
#058320:1626
#061380:14
#062380:24
